Завантажити та скачати торренти українською


Людина / Human (2015) 720p-mini Fre | sub Ukr

Нові коментарі

Нова тема   Відповісти
Автор Повідомлення
TroSer 
Поважний учасник


З нами з: 11.09.13
Востаннє: 09.12.16
Повідомлень: 242

2016-10-30 21:56  
Людина / Human (2015) 720p-mini Fre | sub Ukr

Людина / Human (2015) 720p-mini Fre | sub Ukr


Жанр: документальний
Країна: Франція



Кінокомпанія: Humankind Production, GoodPlanet Foundation
Режисер: Ян Артюс-Бертран (Yann Arthus-Bertrand)
Актори: жителі планети Земля

Сюжет:
Фільм ЛЮДИНА (HUMAN) – це збірка історій та зображень нашого світу, яка представляє глядачеві спробу докопатися до суті того, що значить бути людиною. Хоча ці історії й сповнені любові та радості, так само як і ненависті та жорстокості, все ж ЛЮДИНА дозволяє нам зіткнутися з Іншим, змушуючи задуматися над своїм життям. Від банальних історій щоденного життя, до зображень найнеймовірніших життів. Ці болісні зустрічі, які об’єднала рідкісна щирість, з якою їх розповідали, підкреслюють хто ми такі — наші темні сторони, але також і наші благородства та універсальні якості. Наша Земля показана з допомогою неймовірних, раніше не бачених аерофотознімків, які супроводжуються піднесеною музикою, що виливається в оду красі світу.


Тривалість: 02:13:43
Якість:
Відео:
кодек:
розмір кадру: 1280 х 720
бітрейт: 1000 кб/с

Аудіо:
мова: французька, англійська, іспанська, російська і т.п. (мови народів світу)
переклад: оригінал
кодек: 2.0
бітрейт: 96 кб/с

Субтитри:
мова: українська (власний переклад з англійської)
тип: програмні (м'які)
формат: *.srt
Скріншоти




MediaInfo

General
Format : MPEG-4
Format profile : Base Media
Codec ID : isom
File size : 1.03 GiB
Duration : 2h 13mn
Overall bit rate mode : Variable
Overall bit rate : 1 100 Kbps
Encoded date : UTC 2015-10-30 15:12:44
Tagged date : UTC 2015-10-30 15:12:44
Video #1
ID : 1
Format : AVC
Format/Info : Advanced Video Codec
Format profile : [email protected]
Format settings, CABAC : Yes
Format settings, ReFrames : 5 frames
Codec ID : avc1
Codec ID/Info : Advanced Video Coding
Duration : 2h 13mn
Bit rate : 1 000 Kbps
Maximum bit rate : 9 354 Kbps
Width : 1 280 pixels
Height : 720 pixels
Display aspect ratio : 16:9
Frame rate mode : Constant
Frame rate : 25.000 fps
Color space : YUV
Chroma subsampling : 4:2:0
Bit depth : 8 bits
Scan type : Progressive
Bits/(Pixel*Frame) : 0.043
Stream size : 956 MiB (91%)
Writing library : core 146 r2538 121396c
Encoding settings : cabac=1 / ref=5 / deblock=1:-1:-1 / analyse=0x3:0x113 / me=umh / subme=9 / psy=1 / psy_rd=1.00:0.15 / mixed_ref=1 / me_range=24 / chroma_me=1 / trellis=2 / 8x8dct=1 / cqm=0 / deadzone=21,11 / fast_pskip=0 / chroma_qp_offset=-3 / threads=12 / lookahead_threads=1 / sliced_threads=0 / nr=0 / decimate=1 / interlaced=0 / bluray_compat=0 / constrained_intra=0 / bframes=3 / b_pyramid=2 / b_adapt=2 / b_bias=0 / direct=3 / weightb=1 / open_gop=0 / weightp=2 / keyint=250 / keyint_min=25 / scenecut=40 / intra_refresh=0 / rc_lookahead=60 / rc=2pass / mbtree=1 / bitrate=1000 / ratetol=1.0 / qcomp=0.60 / qpmin=0 / qpmax=69 / qpstep=4 / cplxblur=20.0 / qblur=0.5 / vbv_maxrate=31250 / vbv_bufsize=31250 / nal_hrd=none / filler=0 / ip_ratio=1.40 / aq=1:1.00
Encoded date : UTC 2015-10-30 15:01:45
Tagged date : UTC 2015-10-30 15:12:52
Color primaries : BT.709
Matrix coefficients : BT.709
Audio #2
ID : 2
Format :
Format/Info : Advanced Audio Codec
Format profile : LC
Codec ID : 40
Duration : 2h 13mn
Source duration : 2h 13mn
Bit rate mode : Variable
Bit rate : 96.0 Kbps
Maximum bit rate : 125 Kbps
Channel(s) : 2 channels
Channel positions : Front: L R
Sampling rate : 48.0 KHz
Compression mode : Lossy
Stream size : 91.8 MiB (9%)
Source stream size : 91.8 MiB (9%)
Tagged date : UTC 2015-10-30 15:12:52
Особиста оцінка: 10 - без зайвих вагань рекомендую всім!


Авторський реліз (завантажувати можна без реєстрації)
 Трекер:    Зареєстрований   

Завантажити / скачати фільм українською



відео для новачків



 Зареєстрований:   2016-10-30 21:56
 Розмір:   1.03 GB 
 Оцінка фільму:   10/10 (Голосів: 3)
   
11FrYkT 
Модератор відео


З нами з: 20.02.11
Востаннє: 09.12.16
Повідомлень: 3133

2016-10-30 22:03  
TroSer , вкажіть що це 720р-mini, також джерело субтитрів. Було б непогано щоб саби були в контейнері
EvGaS 
Відео Гуртом - підтримка та поширення
Відео Гуртом - підтримка та поширення


З нами з: 27.02.12
Востаннє: 09.12.16
Повідомлень: 2150

2016-10-31 09:08  
11FrYkT написано:
Було б непогано щоб саби були в контейнері

Гадаю, для СРТ не критично.
Бо в мене, наприклад, техніка не підтримує ані АСС, ані вміщення в матрьошку — лише зовнішні СРТ. Тож з моєї перспективи все якраз добре.

Хоча й продублювати зовні+контейнер не завадить.

TroSer 
Поважний учасник


З нами з: 11.09.13
Востаннє: 09.12.16
Повідомлень: 242

2016-10-31 11:53  
Ну я не проти, якщо хтось хоче зробити якісніше відео, наприклад, закинути саби в контейнер, будь ласка. Я так награвся з текстом в цьому релізі, що ще не скоро захочеться щось змінювати))
Форкуш 
VIP


З нами з: 03.02.10
Востаннє: 09.12.16
Повідомлень: 1545

2016-11-07 23:56  
Прекрасний фільм і чудові саби. рідко зустрінеш без русизмів чи помилок.
лише кілька зауважень, на 32 хв. букви с бракує у слові спочиває, на 1 год 20 хв. вражено на уражено, на 1 год 25 хв. всохла виправити на висохла, ну і я б замінив скрізь слово відносини на стосунки.
Дякую безмежно!

TroSer 
Поважний учасник


З нами з: 11.09.13
Востаннє: 09.12.16
Повідомлень: 242

2016-11-08 12:03  
Форкуш
Дякую за коментар! Часто проблеми з відсутніми літерами виникали через клавіатуру "AccuType", яка іноді вперто не хотіла друкувати літери. Але у вказаних випадках швидше за все вже "мозок" відмовлявся Wink (2)

P.S. Я не вказував цього в релізі, але за відзнятими матеріалами проекту HUMAN було створено 11 різних фільмів. Наприклад, до цієї версії не потрапила історія акторки Кемерон Діаз про те, як це бути акторкою, як жити, будучи всесвітньовідомою і т.п.:
Кемерон Діаз (англійською мовою):
також в інтернет версії фільму є інтерв'ю з українцями, в першому випуску Галина з Франції розповідає про життя в еміграції (53:46):
HUMAN Extended version VOL.1:
ще були історії на тему Майдану. Наприклад, Володимир розповідає про свої враження від перебування на Майдані (1:14:34), далі ще є інтерв'ю волонтерки Діани (російською мовою):
HUMAN Extended version VOL.3:

Форкуш 
VIP


З нами з: 03.02.10
Востаннє: 09.12.16
Повідомлень: 1545

2016-11-08 13:08  
TroSer
Нічого собі... От би якийсь канал озвучив усі його фільми...

Ваш часовий пояс: GMT + 2 Години

Нова тема   Відповісти