Завантажити та скачати торренти українською


Йогануті / Yoga Hosers (2016) 1080p Ukr/Eng

Нові коментарі

Нова тема   Відповісти
Автор Повідомлення
Anonymous 







2016-10-30 20:45  
Йогануті / Yoga Hosers (2016) 1080p Ukr/Eng

Йогануті / Yoga Hosers (2016) 1080p Ukr/Eng


Жанр: трилер, комедія, жахи, фентезі
Країна: США



Кінокомпанія: Abbolita Productions, Destro Films, Invincible Pictures, SModcast Pictures, StarStream Media, XYZ Films
Режисер: Кевін Сміт / Kevin Smith
Актори: Лілі-Роуз Депп / Lily-Rose Depp, Гарлі Квінн Сміт / Harley Quinn Smith, Ванесса Параді / Vanessa Paradis, Джонні Депп / Johnny Depp, Кевін Сміт / Kevin Smith, Адам Броді / Adam Brody, Гарлі Моренштейн / Harley Morenstein, Ешлі Грін / Ashley Greene, Наташа Ліонн / Natasha Lyonne, Джастін Лонг / Justin Long, Гейлі Джоел Осмент / Haley Joel Osment та інші

Сюжет:
Дві юні подружки з Манітоби, що фанатіють від йоги, об'єднаються з легендарним мисливцем за головами з Монреаля, щоб битися з древніми силами зла, які загрожують нашому світу.

Офіційний український трейлер:


Рейтинг MPAA: PG-13 - дітям до 13 років перегляд не бажаний
Вікова категорія: 14+

Тривалість: 01:27:18
Якість: 1080p - Увага! Російський відеоряд
Відео:
кодек:
розмір кадру: 1920 х 804
бітрейт: 4574 Кбіт/с

Аудіо # 1:
мова: українська
переклад: багатоголосий закадровий
кодек: 2.0
бітрейт: 192 Кбіт/с

Аудіо # 2:
мова: англійська
переклад: оригінал
кодек: 2.0
бітрейт: 192 Кбіт/с

Збережено оригінальні розділи
MediaInfo
Код:
Complete name               : Yoga Hosers (2016) [Ukr,Eng] 1080p [Hurtom].mkv
Format                      : Matroska
Format version              : Version 4 / Version 2
File size                   : 3.02 GiB
Duration                    : 1 h 27 min
Overall bit rate            : 4 960 kb/s
Movie name                  : Йогануті / Yoga Hosers (2016) [Ukr,Eng] 1080p [Hurtom]

Video
ID                          : 1
Format                      : AVC
Format/Info                 : Advanced Video Codec
Format profile              : [email protected]
Format settings, CABAC      : Yes
Format settings, ReFrames   : 5 frames
Codec ID                    : V_MPEG4/ISO/AVC
Duration                    : 1 h 27 min
Bit rate                    : 4 574 kb/s
Width                       : 1 920 pixels
Height                      : 804 pixels
Display aspect ratio        : 2.40:1
Frame rate mode             : Constant
Frame rate                  : 24.000 FPS
Color space                 : YUV
Chroma subsampling          : 4:2:0
Bit depth                   : 8 bits
Scan type                   : Progressive
Bits/(Pixel*Frame)          : 0.123
Stream size                 : 2.79 GiB (92%)
Title                       : Йогануті / Yoga Hosers (2016) 10820p [BLUEBIRD-iTunes]
Language                    : Russian
Default                     : Yes
Forced                      : No
Color range                 : Limited
Color primaries             : BT.709
Transfer characteristics    : BT.709
Matrix coefficients         : BT.709

Audio #1
ID                          : 2
Format                      : AC-3
Format/Info                 : Audio Coding 3
Mode extension              : CM (complete main)
Format settings, Endianness : Big
Codec ID                    : A_AC3
Duration                    : 1 h 27 min
Bit rate mode               : Constant
Bit rate                    : 192 kb/s
Channel(s)                  : 2 channels
Channel positions           : Front: L R
Sampling rate               : 48.0 kHz
Frame rate                  : 31.250 FPS (1536 spf)
Compression mode            : Lossy
Stream size                 : 120 MiB (4%)
Title                       : MVO, 2.0 192 Kbps [Hurtom]
Language                    : Ukrainian
Default                     : Yes
Forced                      : No

Audio #2
ID                          : 3
Format                      : AC-3
Format/Info                 : Audio Coding 3
Mode extension              : CM (complete main)
Format settings, Endianness : Big
Codec ID                    : A_AC3
Duration                    : 1 h 27 min
Bit rate mode               : Constant
Bit rate                    : 192 kb/s
Channel(s)                  : 2 channels
Channel positions           : Front: L R
Sampling rate               : 48.0 kHz
Frame rate                  : 31.250 FPS (1536 spf)
Compression mode            : Lossy
Stream size                 : 120 MiB (4%)
Title                       : Original, 2.0 192 Kbps
Language                    : English
Default                     : No
Forced                      : No

Menu
00:00:00.000                : en:Chapter 01
00:05:16.166                : en:Chapter 02
00:11:41.582                : en:Chapter 03
00:18:23.123                : en:Chapter 04
00:25:16.498                : en:Chapter 05
00:31:15.706                : en:Chapter 06
00:38:07.247                : en:Chapter 07
00:43:33.580                : en:Chapter 08
00:49:28.705                : en:Chapter 09
00:55:07.705                : en:Chapter 10
01:00:49.788                : en:Chapter 11
01:06:40.704                : en:Chapter 12
01:12:30.245                : en:Chapter 13
01:17:35.203                : en:Chapter 14
Скріншоти
будуть

Підтримати купівлю інших фільмів можна тут



Джерело: &
Подяка за українську доріжку п.AngryBirdsUA


 Трекер:    Зареєстрований   

Завантажити / скачати фільм українською



відео для новачків



 Зареєстрований:   2016-10-30 21:03
 Розмір:   3.02 GB 
 Оцінка фільму:   4.1/10 (Голосів: 17)
   
Інші релізи
   Йогануті / Yoga Hosers (2016) 720p Ukr/Eng igor911  9 / 0   2.45 GB   2016-10-30 20:38 
   Йогануті / Yoga Hosers (2016) AngryBirdsUA  32 / 0   1.45 GB   2016-10-30 18:31 
bot 
робот


З нами з: 30.09.07
Востаннє: 26.05.05
Повідомлень: 15968

2016-10-30 21:03  
Тему перенесено з Анонси релізів до форуму Фільми в HD


igor911

Ваш часовий пояс: GMT + 2 Години

Нова тема   Відповісти