Завантажити та скачати торренти українською


Йогануті / Yoga Hosers (2016) 720p Ukr/Eng

Нові коментарі

Нова тема   Відповісти
Автор Повідомлення
Anonymous 







2016-10-30 19:37  
Йогануті / Yoga Hosers (2016) 720p Ukr/Eng

Йогануті / Yoga Hosers (2016) 720p Ukr/Eng


Жанр: трилер, комедія, жахи, фентезі
Країна: США



Кінокомпанія: Abbolita Productions, Destro Films, Invincible Pictures, SModcast Pictures, StarStream Media, XYZ Films
Режисер: Кевін Сміт / Kevin Smith
Актори: Лілі-Роуз Депп / Lily-Rose Depp, Гарлі Квінн Сміт / Harley Quinn Smith, Ванесса Параді / Vanessa Paradis, Джонні Депп / Johnny Depp, Кевін Сміт / Kevin Smith, Адам Броді / Adam Brody, Гарлі Моренштейн / Harley Morenstein, Ешлі Грін / Ashley Greene, Наташа Ліонн / Natasha Lyonne, Джастін Лонг / Justin Long, Гейлі Джоел Осмент / Haley Joel Osment та інші

Сюжет:
Дві юні подружки з Манітоби, що фанатіють від йоги, об'єднаються з легендарним мисливцем за головами з Монреаля, щоб битися з древніми силами зла, які загрожують нашому світу.

Офіційний український трейлер:


Рейтинг MPAA: PG-13 - дітям до 13 років перегляд не бажаний
Вікова категорія: 14+

Тривалість: 01:27:18
Якість: 720p - Увага! Російський відеоряд
Відео:
кодек:
розмір кадру: 1280 х 536
бітрейт: 3640 Кбіт/с

Аудіо # 1:
мова: українська
переклад: багатоголосий закадровий
кодек: 2.0
бітрейт: 192 Кбіт/с

Аудіо # 2:
мова: англійська
переклад: оригінал
кодек: 2.0
бітрейт: 192 Кбіт/с
MediaInfo
Код:
Complete name               : Yoga Hosers (2016) [Uk,Eng] 720p [Hurtom].mkv
Format                      : Matroska
Format version              : Version 4 / Version 2
File size                   : 2.45 GiB
Duration                    : 1 h 27 min
Overall bit rate            : 4 022 kb/s
Movie name                  : Йогануті / Yoga Hosers (2016) [Uk,Eng] 720p [Hurtom]

Video
ID                          : 1
Format                      : AVC
Format/Info                 : Advanced Video Codec
Format profile              : [email protected]
Format settings, CABAC      : Yes
Format settings, ReFrames   : 4 frames
Codec ID                    : V_MPEG4/ISO/AVC
Duration                    : 1 h 27 min
Bit rate                    : 3 640 kb/s
Width                       : 1 280 pixels
Height                      : 536 pixels
Display aspect ratio        : 2.40:1
Frame rate mode             : Constant
Frame rate                  : 24.000 FPS
Color space                 : YUV
Chroma subsampling          : 4:2:0
Bit depth                   : 8 bits
Scan type                   : Progressive
Bits/(Pixel*Frame)          : 0.221
Stream size                 : 2.22 GiB (90%)
Title                       : Йогануті / Yoga Hosers (2016) 720p [iFT]
Writing library             : core 142 r2431+42 c69a006 tMod [[email protected] X86_64]
Encoding settings           : cabac=1 / ref=4 / deblock=1:-3:-3 / analyse=0x3:0x133 / me=umh / subme=8 / psy=1 / fade_compensate=0.00 / psy_rd=1.05:1.05 / mixed_ref=1 / me_range=36 / chroma_me=1 / trellis=2 / 8x8dct=1 / cqm=0 / deadzone=21,11 / fast_pskip=0 / chroma_qp_offset=-4 / threads=16 / lookahead_threads=4 / sliced_threads=0 / nr=0 / decimate=0 / interlaced=0 / bluray_compat=0 / constrained_intra=0 / fgo=0 / bframes=4 / b_pyramid=2 / b_adapt=2 / b_bias=0 / direct=3 / weightb=1 / open_gop=0 / weightp=2 / keyint=240 / keyint_min=24 / scenecut=40 / intra_refresh=0 / rc_lookahead=150 / rc=2pass / mbtree=0 / bitrate=3640 / ratetol=1.0 / qcomp=0.80 / qpmin=0:0:0 / qpmax=69:69:69 / qpstep=4 / cplxblur=20.0 / qblur=0.5 / vbv_maxrate=62500 / vbv_bufsize=78125 / nal_hrd=none / filler=0 / ip_ratio=1.30 / pb_ratio=1.40 / aq=2:0.68 / aq-sensitivity=10.00 / aq-factor=1.00:1.00:1.00 / aq2=0 / aq3=0
Language                    : Russian
Default                     : Yes
Forced                      : No
Color range                 : Limited
Color primaries             : BT.709
Transfer characteristics    : BT.709
Matrix coefficients         : BT.709

Audio #1
ID                          : 2
Format                      : AC-3
Format/Info                 : Audio Coding 3
Mode extension              : CM (complete main)
Format settings, Endianness : Big
Codec ID                    : A_AC3
Duration                    : 1 h 27 min
Bit rate mode               : Constant
Bit rate                    : 192 kb/s
Channel(s)                  : 2 channels
Channel positions           : Front: L R
Sampling rate               : 48.0 kHz
Frame rate                  : 31.250 FPS (1536 spf)
Compression mode            : Lossy
Stream size                 : 120 MiB (5%)
Title                       : MVO, 2.0 192 Kbps [Hurtom]
Language                    : Ukrainian
Default                     : Yes
Forced                      : No

Audio #2
ID                          : 3
Format                      : AC-3
Format/Info                 : Audio Coding 3
Mode extension              : CM (complete main)
Format settings, Endianness : Big
Codec ID                    : A_AC3
Duration                    : 1 h 27 min
Bit rate mode               : Constant
Bit rate                    : 192 kb/s
Channel(s)                  : 2 channels
Channel positions           : Front: L R
Sampling rate               : 48.0 kHz
Frame rate                  : 31.250 FPS (1536 spf)
Compression mode            : Lossy
Stream size                 : 120 MiB (5%)
Title                       : Original, 2.0 192 Kbps
Language                    : English
Default                     : No
Forced                      : No
Скріншоти
будуть

Підтримати купівлю інших фільмів можна тут



Джерело: &
Подяка за українську доріжку п.AngryBirdsUA


 Трекер:    Зареєстрований   

Завантажити / скачати фільм українською



відео для новачків



 Зареєстрований:   2016-10-30 20:38
 Розмір:   2.45 GB 
 Оцінка фільму:   3.9/10 (Голосів: 18)
   
Інші релізи
   Йогануті / Yoga Hosers (2016) 1080p Ukr/Eng igor911  15 / 0   3.02 GB   2016-10-30 21:03 
   Йогануті / Yoga Hosers (2016) AngryBirdsUA  69 / 0   1.45 GB   2016-10-30 18:31 
bot 
робот


З нами з: 30.09.07
Востаннє: 26.05.05
Повідомлень: 15983

2016-10-30 20:38  
Тему перенесено з Анонси релізів до форуму Фільми в HD


igor911

Anonymous 







2016-10-30 20:42  
zimersz 
Новенький


З нами з: 14.12.14
Востаннє: 04.12.16
Повідомлень: 22

2016-10-31 19:43  
igor911 написано:
також зараз буде 1080p

Дякую)

kolyan201086 
Новенький


З нами з: 02.10.13
Востаннє: 30.11.16
Повідомлень: 3

2016-11-10 16:19  
Фільм--- ПОВНЕ ЛАЙНО,ні-пр-ощо.Жодного смішного моменту не побачив,окрім тупості. Але ж бувае тупо,але смішно, тут зовсім не так,просто тупо.
gunnarukr 
Поважний учасник


З нами з: 07.01.15
Востаннє: 02.12.16
Повідомлень: 232

2016-11-28 07:21  
Пекельний трешак ) Дуже фашистське кіно!
Давно не бачив такого "раку мізків". Дякую.

Місухіцу 
Новенький


З нами з: 26.03.10
Востаннє: 01.12.16
Повідомлень: 3

2016-11-29 01:53  
абсолютне лайно (((
VitNi 
Частий відвідувач


З нами з: 05.05.12
Востаннє: 04.12.16
Повідомлень: 39

2016-11-30 09:52  
Шикарний фільм!
Тонкий гумор на кожному кроці.
Я не дивлюсь фільми з IMDB нижче 6.5 і не розумію чому повівся на цей - та дуже задоволений.
Дивуюсь - як можна було створити це чудо?

Шанувальникам пердячих трупів і т.і. лайну з потугами на філософію - не марнуйте час - карще насолоджуйтесь вихлопами.

PS: Як тупіє суспільство - я про низький рейтинг цьому фільму.

Ваш часовий пояс: GMT + 2 Години

Нова тема   Відповісти