Завантажити та скачати торренти українською


Афера під прикриттям / The Infiltrator (2016) 720p Ukr/Eng | Sub Eng

Нові коментарі

Нова тема   Відповісти
Автор Повідомлення
Anonymous 







2016-10-29 21:05  
Афера під прикриттям / The Infiltrator (2016) 720p Ukr/Eng | Sub Eng



Жанр: трилер, драма, кримінальний, біографічний
Країна: Велика Британія



Кінокомпанія: Good Films
Режисер: Бред Фурман / Brad Furman
Актори: Брайан Кренстон / Bryan Cranston, Ліенн Бест / Leanne Best, Деніел Мейс / Daniel Mays, Том Вон-Лолор / Tom Vaughan-Lawlor, Лара Декаро / Lara Decaro, Джульєтт Обрі / Juliet Aubrey, Емі Раян / Amy Ryan, Джон Леґуізамо / John Leguizamo, Джейсон Айзекс / Jason Isaacs, Майкл Паре / Michael Paré та інші

Сюжет:
Правдива історія безстрашного оперативника, який зумів провернути найризикованішу і масштабну операцію під прикриттям в історії ФБР. Його робота в середовищі гангстерів, наркобаронів та могутніх банкірів розкрила найбільшу схему відмивання грошей і обвалила всю підпільну економіку кримінального світу.

Офіційний український трейлер:


Рейтинг MPAA: R - особам до 17 років обов'язкова присутність батьків або дорослого опікуна
Вікова категорія: 16+

Тривалість: 02:07:08
Якість: 720p
Відео:
кодек:
розмір кадру: 1280 х 536
бітрейт: 8 Мбіт/с

Аудіо # 1:
мова: українська
переклад: багатоголосий закадровий | Студія ААА-sound
кодек: 5.1
бітрейт: 384 Кбіт/с
Інформація про озвучення
Режисер дубляжу: Олександр Єфімов
Ролі озвучили: Андрій Альохін, Катерина Брайковська, Дмитро Завадський, Юлія Перенчук, Юрій Ребрик, Ірина Грей, Андрій Федінчик, Олександр Єфімов та інші

Фільм озвучено студією ААА-sound у 2016 р. на замовлення компанії "Вольга-Україна"
Аудіо # 2:
мова: англійська
переклад: оригінал
кодек: 5.1
бітрейт: 640 Кбіт/с

Субтитри:
мова: англійська
тип: програмні (м'які)
формат: *.srt

Збережено оригінальні розділи, як на Blu-ray.
MediaInfo
Код:
Complete name               : The Infiltrator (2016) [Ukr,Eng sub.Eng] 720p [Hurtom].mkv
Format                      : Matroska
Format version              : Version 4 / Version 2
File size                   : 8.01 GiB
Duration                    : 2 h 7 min
Overall bit rate            : 9 018 kb/s

Video
ID                          : 1
Format                      : AVC
Format/Info                 : Advanced Video Codec
Format profile              : [email protected]
Format settings, CABAC      : Yes
Format settings, ReFrames   : 12 frames
Codec ID                    : V_MPEG4/ISO/AVC
Duration                    : 2 h 7 min
Bit rate                    : 8 000 kb/s
Width                       : 1 280 pixels
Height                      : 536 pixels
Display aspect ratio        : 2.40:1
Frame rate mode             : Constant
Frame rate                  : 23.976 (24000/1001) FPS
Color space                 : YUV
Chroma subsampling          : 4:2:0
Bit depth                   : 8 bits
Scan type                   : Progressive
Bits/(Pixel*Frame)          : 0.486
Stream size                 : 7.10 GiB (89%)
Title                       : Афера під прикриттям / The Infiltrator (2016) 720p [HDChina]
Writing library             : core 148 r2665kMod a01e339
Encoding settings           : cabac=1 / ref=12 / deblock=1:-3:-3 / analyse=0x3:0x133 / me=umh / subme=11 / psy=1 / fade_compensate=0.00 / psy_rd=1.05:0.00 / mixed_ref=1 / me_range=32 / chroma_me=1 / trellis=2 / 8x8dct=1 / cqm=0 / deadzone=21,11 / fast_pskip=0 / chroma_qp_offset=-2 / threads=17 / lookahead_threads=2 / sliced_threads=0 / nr=0 / decimate=0 / interlaced=0 / bluray_compat=0 / constrained_intra=0 / fgo=0 / bframes=8 / b_pyramid=2 / b_adapt=2 / b_bias=0 / direct=3 / weightb=1 / open_gop=0 / weightp=2 / keyint=240 / keyint_min=24 / scenecut=40 / intra_refresh=0 / rc=2pass / mbtree=0 / bitrate=8000 / ratetol=1.0 / qcomp=0.70 / qpmin=0 / qpmax=69 / qpstep=4 / cplxblur=20.0 / qblur=0.5 / ip_ratio=1.20 / pb_ratio=1.20 / aq=3:0.85
Language                    : English
Default                     : Yes
Forced                      : No

Audio #1
ID                          : 2
Format                      : AC-3
Format/Info                 : Audio Coding 3
Mode extension              : CM (complete main)
Format settings, Endianness : Big
Codec ID                    : A_AC3
Duration                    : 2 h 7 min
Bit rate mode               : Constant
Bit rate                    : 384 kb/s
Channel(s)                  : 6 channels
Channel positions           : Front: L C R, Side: L R, LFE
Sampling rate               : 48.0 kHz
Frame rate                  : 31.250 FPS (1536 spf)
Compression mode            : Lossy
Stream size                 : 349 MiB (4%)
Title                       : MVO [AAA-sound, iTunes] 5.1 384 Kbps
Language                    : Ukrainian
Default                     : Yes
Forced                      : No

Audio #2
ID                          : 3
Format                      : AC-3
Format/Info                 : Audio Coding 3
Mode extension              : CM (complete main)
Format settings, Endianness : Big
Codec ID                    : A_AC3
Duration                    : 2 h 7 min
Bit rate mode               : Constant
Bit rate                    : 640 kb/s
Channel(s)                  : 6 channels
Channel positions           : Front: L C R, Side: L R, LFE
Sampling rate               : 48.0 kHz
Frame rate                  : 31.250 FPS (1536 spf)
Compression mode            : Lossy
Stream size                 : 582 MiB (7%)
Title                       : Original, 5.1 640 Kbps
Language                    : English
Default                     : No
Forced                      : No

Text
ID                          : 4
Format                      : UTF-8
Codec ID                    : S_TEXT/UTF8
Codec ID/Info               : UTF-8 Plain Text
Duration                    : 1 h 56 min
Bit rate                    : 65 b/s
Count of elements           : 1529
Stream size                 : 56.0 KiB (0%)
Language                    : English
Default                     : No
Forced                      : No

Menu
00:00:00.000                : en:00:00:00.000
00:09:01.666                : en:00:09:01.666
00:17:00.686                : en:00:17:00.686
00:24:48.654                : en:00:24:48.654
00:28:36.882                : en:00:28:36.882
00:35:12.193                : en:00:35:12.193
00:42:31.340                : en:00:42:31.340
00:51:42.725                : en:00:51:42.725
00:57:40.832                : en:00:57:40.832
01:02:47.806                : en:01:02:47.806
01:07:41.474                : en:01:07:41.474
01:17:04.662                : en:01:17:04.662
01:24:18.553                : en:01:24:18.553
01:31:43.832                : en:01:31:43.832
01:40:58.970                : en:01:40:58.970
01:47:44.249                : en:01:47:44.249
01:52:50.222                : en:01:52:50.222
01:58:14.129                : en:01:58:14.129


Джерело: &
Подяка п.11FrYkT за допомогу у створенні релізу та п.Gelios'у за українізований постер.

ЗАЛИШАЙТЕСЬ ЯКОМОГА ДОВШЕ НА РОЗДАЧІ
ЗАВАНТАЖИВ САМ - ДАЙ ЗАВАНТАЖИТИ ІНШИМ!


 Трекер:    Зареєстрований   

Завантажити / скачати фільм українською



відео для новачків



 Зареєстрований:   2016-11-03 20:14
 Розмір:   8.01 GB 
 Оцінка фільму:   6.4/10 (Голосів: 30)
   
Інші релізи
bot 
робот


З нами з: 30.09.07
Востаннє: 26.05.05
Повідомлень: 15975

2016-11-03 20:14  
Тему перенесено з Анонси релізів до форуму Фільми в HD


igor911

INTER-FAN 
Свій


З нами з: 25.01.10
Востаннє: 03.12.16
Повідомлень: 60

2016-11-16 20:23  
Був в кіно. Особисто мені, фільм сподобався.
Ваш часовий пояс: GMT + 2 Години

Нова тема   Відповісти