Завантажити та скачати торренти українською


Дуже погані матусі / Bad Moms (2016) 1080p Ukr/Eng | Sub Eng

Нові коментарі

Нова тема   Відповісти
Автор Повідомлення
Babamin 
Новенький


З нами з: 29.12.15
Востаннє: 03.12.16
Повідомлень: 3

2016-10-27 14:13  
Дуже погані матусі / Bad Moms (2016) 1080p Ukr/Eng | Sub Eng



Жанр: комедія
Країна: США



Кінокомпанія: STX Entertainment, Huayi Brothers Media, Block Entertainment, Universal
Режисер: Скотт Мур, Джон Лукас
Актори: Міла Куніс, Крістен Белл, Кетрін Хан, Крістіна Епплґейт, Джада Пінкетт Сміт, Уна Лоуренс, Енні Мумоло, Емджей Ентоні, Девід Волтон, Кларк Дюк

Сюжет:
Чому тільки татам дозволено розважатися в своє задоволення? Зустрічайте комедію про мам, що спростовують стереотипи, від авторів "Похмілля у Вегасі" і "21 і більше" Скотта Мура і Джона Лукаса. У Емі ідеальне життя: щасливий шлюб, діти і успішна кар'єра. Але чи є це запорукою щастя, якщо бідна жінка перебуває в постійній напрузі? Емі знаходить союзників серед матерів у школі, які також незадоволені суворими і важкими обов'язками, вигаданими главою батьківської ради Гвендолін. Три подруги шукають відпочинку та розваг разом, дратуючи "ідеальних" матерів зі школи.

Тривалість: 01:40:57
Якість: 1080p

Відео:
кодек:
розмір кадру: 1920 х 800
бітрейт: 12000 кб/с

Аудіо # 1:
мова: українська
переклад: професійний дубльований (iTunes)
кодек: 5.1
бітрейт: 384 кб/с

Аудіо # 2:
мова: англійська
переклад: оригінал
кодек: 5.1
бітрейт: 1509 кб/с

Субтитри:
мова: англійська
тип: програмні (м'які)
формат: *.srt
MediaInfo:
General
Complete name : D: Bad.Moms.(2016)..1080p.[UKR_ENG]_[Hurtom].mkv
Format : Matroska
Format version : Version 4 / Version 2
File size : 9.96 GiB
Duration : 1h 40mn
Overall bit rate : 14.1 Mbps
Movie name : Bad Moms (2016) 1080p [UKR_ENG] [Hurtom]
Encoded date : UTC 2016-10-27 11:09:48
Writing application : mkvmerge v9.4.0 ('Knurl') 64bit
Writing library : libebml v1.3.4 + libmatroska v1.4.5
DURATION : 01:35:04.072000000
NUMBER_OF_FRAMES : 2073
NUMBER_OF_BYTES : 67230
_STATISTICS_WRITING_APP : mkvmerge v9.4.0 ('Knurl') 64bit
_STATISTICS_WRITING_DATE_UT : 2016-10-27 11:09:48
_STATISTICS_TAGS : BPS DURATION NUMBER_OF_FRAMES NUMBER_OF_BYTES

Video
ID : 1
Format : AVC
Format/Info : Advanced Video Codec
Format profile : [email protected]
Format settings, CABAC : Yes
Format settings, ReFrames : 5 frames
Codec ID : V_MPEG4/ISO/AVC
Duration : 1h 40mn
Bit rate : 12.0 Mbps
Width : 1 920 pixels
Height : 800 pixels
Display aspect ratio : 2.40:1
Frame rate mode : Constant
Frame rate : 23.976 fps
Color space : YUV
Chroma subsampling : 4:2:0
Bit depth : 8 bits
Scan type : Progressive
Bits/(Pixel*Frame) : 0.325
Stream size : 8.43 GiB (85%)
Writing library : core 142 r2431+42 c69a006 tMod [[email protected] X86_64]
Encoding settings : cabac=1 / ref=5 / deblock=1:-3:-3 / analyse=0x3:0x133 / me=umh / subme=11 / psy=1 / fade_compensate=0.00 / psy_rd=0.90:0.00 / mixed_ref=1 / me_range=32 / chroma_me=1 / trellis=2 / 8x8dct=1 / cqm=0 / deadzone=21,11 / fast_pskip=0 / chroma_qp_offset=-2 / threads=42 / lookahead_threads=6 / sliced_threads=0 / nr=0 / decimate=0 / interlaced=0 / bluray_compat=0 / constrained_intra=0 / fgo=0 / bframes=8 / b_pyramid=2 / b_adapt=2 / b_bias=0 / direct=3 / weightb=1 / open_gop=0 / weightp=2 / keyint=250 / keyint_min=23 / scenecut=40 / intra_refresh=0 / rc_lookahead=60 / rc=crf / mbtree=0 / crf=17.7000 / qcomp=0.60 / qpmin=0:0:0 / qpmax=69:69:69 / qpstep=4 / vbv_maxrate=40000 / vbv_bufsize=30000 / crf_max=0.0 / nal_hrd=none / filler=0 / ip_ratio=1.40 / pb_ratio=1.30 / aq=1:0.90 / aq-sensitivity=10.00 / aq-factor=1.00:1.00:1.00 / aq2=0 / aq3=0
Language : English
Default : Yes
Forced : No
DURATION : 01:40:57.010000000
NUMBER_OF_FRAMES : 145223
NUMBER_OF_BYTES : 9261955524
_STATISTICS_WRITING_APP : mkvmerge v9.4.0 ('Knurl') 64bit
_STATISTICS_WRITING_DATE_UT : 2016-10-27 11:09:48
_STATISTICS_TAGS : BPS DURATION NUMBER_OF_FRAMES NUMBER_OF_BYTES

Audio #1
ID : 2
Format : AC-3
Format/Info : Audio Coding 3
Mode extension : CM (complete main)
Format settings, Endianness : Big
Codec ID : A_AC3
Duration : 1h 40mn
Bit rate mode : Constant
Bit rate : 384 Kbps
Channel(s) : 6 channels
Channel positions : Front: L C R, Side: L R, LFE
Sampling rate : 48.0 KHz
Compression mode : Lossy
Stream size : 277 MiB (3%)
Title : iTunes
Language : Ukrainian
Default : Yes
Forced : Yes

Audio #2
ID : 3
Format :
Format/Info : Digital Theater Systems
Mode : 16
Format settings, Endianness : Big
Codec ID : A_DTS
Duration : 1h 40mn
Bit rate mode : Constant
Bit rate : 1 509 Kbps
Channel(s) : 6 channels
Channel positions : Front: L C R, Side: L R, LFE
Sampling rate : 48.0 KHz
Bit depth : 24 bits
Compression mode : Lossy
Stream size : 1.06 GiB (11%)
Language : English
Default : No
Forced : No

Text
ID : 4
Format : UTF-8
Codec ID : S_TEXT/UTF8
Codec ID/Info : UTF-8 Plain Text
Language : English
Default : No
Forced : No

Menu
00:00:00.000 : en:00:00:00.000
00:04:58.548 : en:00:04:58.548
00:09:17.056 : en:00:09:17.056
00:16:04.839 : en:00:16:04.839
00:21:45.221 : en:00:21:45.221
00:26:46.271 : en:00:26:46.271
00:29:36.149 : en:00:29:36.149
00:35:35.508 : en:00:35:35.508
00:39:20.900 : en:00:39:20.900
00:44:41.012 : en:00:44:41.012
00:48:33.202 : en:00:48:33.202
00:53:43.178 : en:00:53:43.178
00:59:08.503 : en:00:59:08.503
01:04:24.110 : en:01:04:24.110
01:08:55.882 : en:01:08:55.882
01:14:03.856 : en:01:14:03.856
01:18:57.358 : en:01:18:57.358
01:23:48.982 : en:01:23:48.982
01:26:58.713 : en:01:26:58.713
01:32:59.073 : en:01:32:59.073
Скріншоти:









 Трекер:    Зареєстрований   

Завантажити / скачати фільм українською



відео для новачків



 Зареєстрований:   2016-10-27 14:13
 Розмір:   9.96 GB 
 Оцінка фільму:   8.6/10 (Голосів: 8)
   
Інші релізи
Ваш часовий пояс: GMT + 2 Години

Нова тема   Відповісти