Завантажити та скачати торренти українською


Марина Одольська - Марина Одольська (1999) [FLAC] | Pop

Нові коментарі

Нова тема   Відповісти
Автор Повідомлення
ultramode84 
Новенький


З нами з: 05.03.15
Востаннє: 17.11.16
Повідомлень: 9

2016-10-26 14:25  
Марина Одольська - Марина Одольська (1999) [FLAC] | Pop

Марина Одольська - Марина Одольська (1999) [FLAC] | Pop


Стиль: Pop
Країна, місто: Україна, Кам’янець-Подільський
Сайти: Офіційний сайт
Видавець: J.R.C.
Виконавці:
Марина Одольська - вокал
Пісні:
    01 - Твій літак
    02 - Божевільна
    03 - Сумно мені
    04 - Сон 2
    05 - Казка
    06 - Розлука
    07 - Симфонія
    08 - Біль
    09 - Відпусти
    10 - Танцюй
    11 - Мальви
    12 - Сумно мені (remix)
log

Exact Audio Copy V1.0 beta 3 from 29. August 2011

EAC extraction logfile from 26. October 2016, 14:46

Марина Одольська / Марина Одольська

Used drive : PIONEER DVD-RW DVR-220L Adapter: 0 ID: 0

Read mode : Secure
Utilize accurate stream : Yes
Defeat audio cache : Yes
Make use of C2 pointers : No

Read offset correction : 6
Overread into Lead-In and Lead-Out : No
Fill up missing offset samples with silence : Yes
Delete leading and trailing silent blocks : No
Null samples used in CRC calculations : Yes
Used interface : Native Win32 interface for Win NT & 2000
Gap handling : Appended to previous track

Used output format : User Defined Encoder
Selected bitrate : 128 kBit/s
Quality : High
Add ID3 tag : No
Command line compressor : C:\Program Files (x86)\Exact Audio Copy\Flac\flac.exe
Additional command line options : -V -8 -T "Genre=%genre%" -T "Artist=%artist%" -T "Title=%title%" -T "Album=%albumtitle%" -T "Date=%year%" -T "Tracknumber=%tracknr%" -T "Comment=%comment%" %hascover%--picture="%coverfile%"%hascover% %source%

TOC of the extracted CD

Track | Start | Length | Start sector | End sector
---------------------------------------------------------
1 | 0:00.00 | 4:23.58 | 0 | 19782
2 | 4:23.58 | 3:33.53 | 19783 | 35810
3 | 7:57.36 | 4:20.04 | 35811 | 55314
4 | 12:17.40 | 4:10.62 | 55315 | 74126
5 | 16:28.27 | 2:48.05 | 74127 | 86731
6 | 19:16.32 | 4:02.14 | 86732 | 104895
7 | 23:18.46 | 5:54.19 | 104896 | 131464
8 | 29:12.65 | 4:02.42 | 131465 | 149656
9 | 33:15.32 | 4:47.22 | 149657 | 171203
10 | 38:02.54 | 4:28.41 | 171204 | 191344
11 | 42:31.20 | 5:18.00 | 191345 | 215194
12 | 47:49.20 | 2:54.56 | 215195 | 228300
13 | 53:16.01 | 26:24.18 | 239701 | 358518

Track 1

Filename E:\Марина Одольська - 1999 - Марина Одольська\01 - Твій Літак.wav

Pre-gap length 0:00:02.00

Peak level 88.0 %
Extraction speed 3.0 X
Track quality 100.0 %
Test CRC FAB44EAE
Copy CRC FAB44EAE
Track not present in AccurateRip database
Copy OK

Track 2

Filename E:\Марина Одольська - 1999 - Марина Одольська\02 - Божевільна.wav

Peak level 91.6 %
Extraction speed 3.2 X
Track quality 100.0 %
Test CRC CA5BBD21
Copy CRC CA5BBD21
Track not present in AccurateRip database
Copy OK

Track 3

Filename E:\Марина Одольська - 1999 - Марина Одольська\03 - Сумно Мені.wav

Peak level 91.6 %
Extraction speed 3.5 X
Track quality 100.0 %
Test CRC F21BD37E
Copy CRC F21BD37E
Track not present in AccurateRip database
Copy OK

Track 4

Filename E:\Марина Одольська - 1999 - Марина Одольська\04 - Сон ІІ.wav

Peak level 89.3 %
Extraction speed 3.8 X
Track quality 100.0 %
Test CRC 1DD94818
Copy CRC 1DD94818
Track not present in AccurateRip database
Copy OK

Track 5

Filename E:\Марина Одольська - 1999 - Марина Одольська\05 - Казка.wav

Peak level 90.2 %
Extraction speed 3.7 X
Track quality 100.0 %
Test CRC 9AC792BC
Copy CRC 9AC792BC
Track not present in AccurateRip database
Copy OK

Track 6

Filename E:\Марина Одольська - 1999 - Марина Одольська\06 - Розлука.wav

Peak level 89.5 %
Extraction speed 4.1 X
Track quality 100.0 %
Test CRC B75A7533
Copy CRC B75A7533
Track not present in AccurateRip database
Copy OK

Track 7

Filename E:\Марина Одольська - 1999 - Марина Одольська\07 - Симфонія.wav

Peak level 90.9 %
Extraction speed 4.1 X
Track quality 99.9 %
Test CRC 0EF0547E
Copy CRC 0EF0547E
Track not present in AccurateRip database
Copy OK

Track 8

Filename E:\Марина Одольська - 1999 - Марина Одольська\08 - Біль.wav

Peak level 98.1 %
Extraction speed 4.5 X
Track quality 100.0 %
Test CRC 27B3F373
Copy CRC 27B3F373
Track not present in AccurateRip database
Copy OK

Track 9

Filename E:\Марина Одольська - 1999 - Марина Одольська\09 - Відпусти.wav

Peak level 87.9 %
Extraction speed 4.8 X
Track quality 100.0 %
Test CRC 51745615
Copy CRC 51745615
Track not present in AccurateRip database
Copy OK

Track 10

Filename E:\Марина Одольська - 1999 - Марина Одольська\10 - Танцюй.wav

Peak level 88.7 %
Extraction speed 4.5 X
Track quality 99.9 %
Test CRC 82F7F2FE
Copy CRC 82F7F2FE
Track not present in AccurateRip database
Copy OK

Track 11

Filename E:\Марина Одольська - 1999 - Марина Одольська\11 - Мальви.wav

Peak level 83.3 %
Extraction speed 5.3 X
Track quality 100.0 %
Test CRC F0B74051
Copy CRC F0B74051
Track not present in AccurateRip database
Copy OK

Track 12

Filename E:\Марина Одольська - 1999 - Марина Одольська\12 - Сумно Мені (Remix).wav

Peak level 89.9 %
Extraction speed 5.0 X
Track quality 100.0 %
Test CRC 3D9951FC
Copy CRC 3D9951FC
Track not present in AccurateRip database
Copy OK

None of the tracks are present in the AccurateRip database

No errors occurred

End of status report

---- CUETools DB Plugin V2.1.4

[CTDB TOCID: NYEOdbrBU9CNWvyuQSowTx2pgRw-] found
Submit result: already submitted
Track | CTDB Status
1 | (1/1) Accurately ripped
2 | (1/1) Accurately ripped
3 | (1/1) Accurately ripped
4 | (1/1) Accurately ripped
5 | (1/1) Accurately ripped
6 | (1/1) Accurately ripped
7 | (1/1) Accurately ripped
8 | (1/1) Accurately ripped
9 | (1/1) Accurately ripped
10 | (1/1) Accurately ripped
11 | (1/1) Accurately ripped
12 | (1/1) Accurately ripped

==== Log checksum 31C6CC6F611F56BB1787572EEC6B13DCC9F4C8B08566B14E01683DDDFFB9AF52 ====
TauAnalyzer

Відео "Божевільна"

Тривалість: 3:33
Якість:
Відео:
кодек: cvid
розмір кадру: 320 x 240
бітрейт: 3768 кб/с

Аудіо:
мова: українська
кодек: raw
бітрейт: 176.4 кб/с
Скріншоти:
Відео "Біль"

Тривалість: 4:03
Якість:
Відео:
кодек: cvid
розмір кадру: 320 x 240
бітрейт: 3408 кб/с

Аудіо:
мова: українська
кодек: raw
бітрейт: 176.4 кб/с
Скріншоти:
Тривалість: 00:50:39
Мова: українська
Аудіо-кодек: FLAC
Бітрейт: ~925 кб/с
Джерело: власний компакт-диск
Додаткова інформація:
Марина Одольська народилася 25 листопада 1975 року в Кам’янець-Подільському. Батьки Марини були акторами місцевого театру. Саме тому, Марина з ранніх літ на сцені: виступи з дитячою хоровою капелою "Журавлик" у Болгарії, Польщі та Росії дали їй безцінний сценічний досвід. З 1989 по 1994 рік вона навчалася в Кам’янець-Подільському училищі культури.
Першим досягненням стала перемога на місцевому конкурсі "Талант-90". В 1995 році Марина здобуває свою першу велику перемогу – вона стає володарем Першої премії Всеукраїнського фестивалю "Червона Рута-95". Це відкриває їй дорогу на телебачення.
Незабаром, в студії Хмельницького радіо й телебачення (звукорежисер Олег Фіщук) був записаний перший магнітоальбом співачки – «Божевільне сонце». Автором пісень став Андрій Нижников.
1996 рік приніс Марині ще дві визначні перемоги: влітку – спеціальний приз на міжнародному фестивалі "Голос Азії" в Алма-Аті, восени – друге місце на "Перлинах сезону".
В січні 1997-го Марина здобула Гран-прі львівського телеконкурсу "Мелодія".
А влітку, зайнявши перше місце на ялтинському фестивалі "Море друзів", Марина підписує контракт із мистецькою агенцією "Територія А". Пісні для неї пишуть Олександр Бригинець та Федір Хіврич. В цьому ж році Марина Одольська знімає свій перший кліп на пісню "Твій літак".
Восени 98-го вона отримує Гран-прі Всеукраїнського фестивалю ім. Володимира Івасюка. Знімаються два наступні кліпи – на пісні "Сумно мені" та "Божевільна".
У вересні 1999-го Марина здобуває перемогу на донецькому міжнародному конкурсі "Золотий Скіф", а під кінець року виходить її перший компакт-диск під назвою "Марина Одольська". Цього ж року виходить кліп на пісню "Біль".


Якщо Ви справді бажаєте підтримати українське - після прослуховування, якщо музика вам сподобалась,
придбайте ліцензійний диск.
Підтримаймо вітчизняних виконавців!


Срібний реліз (на рейтинг впливає 50% завантаженого)
 Трекер:    Зареєстрований   

Завантажити / скачати українську музику



відео для новачків



 Зареєстрований:   2016-10-26 14:25
 Розмір:   561 MB 
 Оцінка музики:   10/10 (Голосів: 5)
   
ssTAss 
Модератор музики


З нами з: 05.07.08
Востаннє: 05.12.16
Повідомлень: 10941

2016-10-26 15:00  
ultramode84
релізи треба створювати виключно через майстер (в правому верхньому кутку сторінки "Додати торент")
прошу дотримуватись правил щодо майбутніх релізів

ярий тверезенник 
VIP


З нами з: 29.01.12
Востаннє: 05.12.16
Повідомлень: 1592

2016-10-26 15:59  
Марина Одольська - Марина Одольська (1999) [FLAC] | Pop

Марина Одольська - Марина Одольська (1999) [MP3] | Pop


виправте ще це в назві [FLAC] замість [MP3]

Ваш часовий пояс: GMT + 2 Години

Нова тема   Відповісти