Завантажити та скачати торренти українською


Порочні вуста / Vicious Lips (1986) 1080p Ukr/Eng

Нові коментарі

Нова тема   Відповісти
Останній раз роздавалося TheCrazyGamer (2016-12-04)
Автор Повідомлення
TheCrazyGamer 
Новенький


З нами з: 23.08.15
Востаннє: 04.12.16
Повідомлень: 24

2016-10-23 22:02  
Порочні вуста / Vicious Lips (1986) 1080p Ukr/Eng


Жанр: музичний, фантастика, хоррор
Країна: США



Кінокомпанія: Empire Pictures, ITM Productions
Режисер: Альберт П'юн
Актори: Дрю-Енн Перрі, Джина Калабрезе, Лінда Керрідж, Шейн Фарріс, Тоні Кентс, Кріс Ендрюс, Мері Енн Грейвз, Джефф Скотт Яско, Ерік Бартш, Брайан Магвайр

Сюжет:
Галактична продюсерша з типовим жіночим ім'ям Максін вбиває свого менджера, котрий за якоїсь причини зірвав концерт музикального гурту на її планеті. Тепер потрібно знайти заміну вбитому, і ним стає Меті Ешер. У цього хлопця постійне безгрошів'я, до того ж від нього тільки що пішла головна вокалістка. І це за годину до концерту. Тепер йому негайно потрібно знайти їй заміну в свій гурт "Порочні вуста". В якійсь забігайлівці така знаходиться. У її виявився дуже непоганий голос. І тут надходить пропозиція від Максін. Гурт негайно споряджається у космічний корабель і вже прямує до пункту призначення. Меті поспіхом керує кораблем, проігнорувавши попередження, він ледь не врізається у метеорит. Корабель здійснює аварійну посадку на пустельній планеті.

Тривалість: 01:17:32
Якість:
Відео:
кодек:
розмір кадру: 1920x1080
бітрейт: 7 981 кб/с

Аудіо #1:
мова: українська
переклад: багатоголосий закадровий
кодек: 2.0
бітрейт: 192 кб/с

Аудіо #2:
мова: англійська
переклад: оригінал
кодек: 2.0
бітрейт: 384 кб/с
MediaInfo

Код:
General
Unique ID                      : 196323838321736141888192483657646116374 (0x93B2988D0A074544A1D6B63F70108E16)
Complete name                  : D:\фільми\Vicious.Lips.1986.HDTV.1080i.Ukr.Eng.mkv
Format                         : Matroska
Format version                 : Version 2
File size                      : 4.73 GiB
Duration                       : 1 h 17 min
Overall bit rate               : 8 730 kb/s
Movie name                     : Vicious Lips
Encoded date                   : UTC 2016-10-27 19:09:17
Writing application            : mkvmerge v4.2.0 ('No Talking') сборка от Jul 28 2010 18:38:23
Writing library                : libebml v1.0.0 + libmatroska v1.0.0

Video
ID                             : 1
Format                         : AVC
Format/Info                    : Advanced Video Codec
Format profile                 : [email protected]
Format settings, CABAC         : Yes
Format settings, ReFrames      : 3 frames
Codec ID                       : V_MPEG4/ISO/AVC
Duration                       : 1 h 17 min
Bit rate                       : 7 980 kb/s
Width                          : 1 920 pixels
Height                         : 1 080 pixels
Display aspect ratio           : 16:9
Frame rate mode                : Constant
Frame rate                     : 25.000 FPS
Standard                       : Component
Color space                    : YUV
Chroma subsampling             : 4:2:0
Bit depth                      : 8 bits
Scan type                      : Interlaced
Scan type, store method        : Separated fields
Scan order                     : Top Field First
Bits/(Pixel*Frame)             : 0.154
Stream size                    : 4.32 GiB (91%)
Title                          : Vicious Lips 1986 1080p HDTV DD2.0-saMMie
Default                        : No
Forced                         : No
Color range                    : Limited
Color primaries                : BT.709
Transfer characteristics       : BT.709
Matrix coefficients            : BT.709

Audio #1
ID                             : 2
Format                         : AC-3
Format/Info                    : Audio Coding 3
Mode extension                 : CM (complete main)
Format settings, Endianness    : Big
Codec ID                       : A_AC3
Duration                       : 1 h 17 min
Bit rate mode                  : Constant
Bit rate                       : 192 kb/s
Channel(s)                     : 2 channels
Channel positions              : Front: L R
Sampling rate                  : 48.0 kHz
Frame rate                     : 31.250 FPS (1536 spf)
Compression mode               : Lossy
Stream size                    : 107 MiB (2%)
Title                          : VO 2.0 192 kbps
Language                       : Ukrainian
Default                        : Yes
Forced                         : No

Audio #2
ID                             : 3
Format                         : AC-3
Format/Info                    : Audio Coding 3
Mode extension                 : CM (complete main)
Format settings, Endianness    : Big
Codec ID                       : A_AC3
Duration                       : 1 h 17 min
Bit rate mode                  : Constant
Bit rate                       : 384 kb/s
Channel(s)                     : 2 channels
Channel positions              : Front: L R
Sampling rate                  : 48.0 kHz
Frame rate                     : 31.250 FPS (1536 spf)
Compression mode               : Lossy
Stream size                    : 213 MiB (4%)
Title                          : Original 2.0 384  kbps
Language                       : English
Default                        : No
Forced                         : No

Скріншоти








Торрент-файл оновлено (28.10.2016)
Реліз перемуксовано без компресії заголовків.

Джерело:
Особиста оцінка: 0 - Не дивився

Цитата:
Подяка:
За звукову доріжку Sando7.



Срібний реліз (на рейтинг впливає 50% завантаженого)
 Трекер:    Зареєстрований   

Завантажити / скачати фільм українською



відео для новачків



 Зареєстрований:   2016-10-28 17:10
 Розмір:   4.73 GB 
 Оцінка фільму:   4.8/10 (Голосів: 6)
   
[Captain] 
Попереджень: 1
Попереджень: 1 


З нами з: 18.02.12
Востаннє: 05.12.16
Повідомлень: 1377

2016-10-24 10:30  
Порнуха на гуртом, нарешті
hetzendorf 
Свій


З нами з: 23.07.15
Востаннє: 05.12.16
Повідомлень: 148

2016-10-26 11:45  
Сюжет написано:
У цього товариша

Відредагувати текст совкових часів релігія не дозволяє?

11FrYkT 
Модератор відео


З нами з: 20.02.11
Востаннє: 05.12.16
Повідомлень: 3092

2016-10-26 20:28  
TheCrazyGamer , зробіть робоче посилання на імдб.

Цитата:
Language : Russian

так рос чи укр?

Цитата:
Text #4
ID : 4
Format : UTF-8
Codec ID : S_TEXT/UTF8
Codec ID/Info : UTF-8 Plain Text
Language : Ukrainian

я так розумію тут є саби, і навряд українські вкаіжіть, відповідно і в заголовку також

bot 
робот


З нами з: 30.09.07
Востаннє: 26.05.05
Повідомлень: 15990

2016-10-26 20:29  
Тему перенесено з Фільми до форуму Фільми в HD


11FrYkT

TheCrazyGamer 
Новенький


З нами з: 23.08.15
Востаннє: 04.12.16
Повідомлень: 24

2016-10-26 22:11  
11FrYkT написано:
я так розумію тут є саби, і навряд українські вкаіжіть, відповідно і в заголовку також
Саби були на російській, але я їх прибрав.

UPD: Оновив MediaInfo, додав посиланя на IMDb.

11FrYkT 
Модератор відео


З нами з: 20.02.11
Востаннє: 05.12.16
Повідомлень: 3092

2016-10-27 05:25  
TheCrazyGamer , от тепер добре що виправили. Прохання надалі лівих МІ не додавати, так як у Вашому файлі увімкнена функція
Цитата:
Muxing mode : Header stripping

перемуксуйте з її відключенням http://toloka.to/t31095

TheCrazyGamer 
Новенький


З нами з: 23.08.15
Востаннє: 04.12.16
Повідомлень: 24

2016-10-28 17:23  
11FrYkT написано:
перемуксуйте з її відключенням http://toloka.to/t31095

Готово.

hetzendorf 
Свій


З нами з: 23.07.15
Востаннє: 05.12.16
Повідомлень: 148

2016-11-04 01:02  
Безмежно нудна трешова фантастика з попсоватим музончиком і розпатланими дівками у стилі «дискотека 80-х». Сюжет — маячня божевільного. Еротика дуже легенька у парі епізодів, загалом хвилини 2 максимум. Заявлений хоррор на рівні… ну не знаю, колгоспна самодіяльність і та майстерніше зіграє.

У підсумку фільм рідкісне лайно 1/10. Дивує, хто міг на imdb докрутити рейтинг до шістки, що мене власне й ввело в оману, було б менше 5 — не качав би.

Ваш часовий пояс: GMT + 2 Години

Нова тема   Відповісти