Завантажити та скачати торренти українською


Пастка для привида (Ghosthunters: On Icy Trails) / Gespensterjäger (2015) 720p Ukr/Eng

Нові коментарі

Нова тема   Відповісти
Автор Повідомлення
Anonymous 







2016-10-23 13:06  
Пастка для привида / Gespensterjäger / Ghosthunters: On Icy Trails (2015) 720p Ukr/Eng



Жанр: комедія, сімейний, фентезі
Країна: Німеччина, Австрія, Ірландія



Кінокомпанія: Lucky Bird Pictures, Warner Bros., Immer Wieder Gerne Film
Режисер: Тобі Бауманн / Tobi Baumann
Актори: Каролін Герфурт / Karoline Herfurth, Анке Енґельке / Anke Engelke, Майло Паркер / Milo Parker, Бастіан Пастевка / Bastian Pastewka, Крістіан Траміц / Christian Tramitz, Крістіан Ульмен / Christian Ulmen, Юлія Кошітц / Julia Koschitz, Рубі О. Фі / Ruby O. Fee, Емі Губерман / Amy Huberman, Каролін Кебекус / Carolin Kebekus та інші

Сюжет:
Історія 11-річного самотнього Тома. Після зустрічі з чарівним вгодованим привидом Хьюго в підвалі свого будинку життя хлопчика зміниться найдивовижнішим чином. Йому доведеться проявити справжню хоробрість і на пару з мисливицем за привидами Хетті допомогти Хьюго повернутися до себе додому. Для цього героям потрібно пройти через масу перешкод, щоб знищити Стародавній Дух Льоду, який живе в будинку Хьюго, і загрожує повалити все місто у вічну мерзлоту. Але для того, щоб зробити подвиги, Тому і Хетті потрібно буде заглянути до себе в серце...

український офіційний трейлер:


Вікова категорія: 6+

Тривалість: 01:38:48
Якість: 720p
Відео:
кодек:
розмір кадру: 1280 х 534
бітрейт: 5500 Кбіт/с

Аудіо # 1:
мова: українська
переклад: професійний дубльований
кодек: 2.0 [справжнє стерео]
бітрейт: 192 Кбіт/с

Аудіо # 2:
мова: англійська
переклад: оригінал
кодек: 5.1
бітрейт: 384 Кбіт/с

Збережено оригінальні розділи, як на Blu-ray.
MediaInfo
Код:
Complete name               : Gespensterjager (2015) [Ukr,Eng] 720p [Hurtom].mkv
Format                      : Matroska
Format version              : Version 4 / Version 2
File size                   : 4.06 GiB
Duration                    : 1 h 38 min
Overall bit rate            : 5 878 kb/s
Movie name                  : Пастка для привида / Gespensterjäger (2015) [Ukr,Eng] 720p [Hurtom]
Released date               : 2015
Cover                       : Yes
Comment                     : http://www.imdb.com/title/tt3711622/
Attachments                 : cover.jpg
ARTIST                      : Каролін Герфурт / Karoline Herfurth, Анке Енґельке / Anke Engelke, Майло Паркер / Milo Parker, Бастіан Пастевка / Bastian Pastewka, Крістіан Траміц / Christian Tramitz, Крістіан Ульмен / Christian Ulmen, Юлія Кошітц / Julia Koschitz, Рубі О. Фі, Емі Губерман / Ruby O. Fee, Каролін Кебекус / Carolin Kebekus та інші
DIRECTOR                    : Тобі Бауманн / Tobi Baumann
GENRE                       : комедія, сімейний, фентезі
SYNOPSIS                    : Історія 11-річного самотнього Тома. Після зустрічі з чарівним вгодованим привидом Хьюго в підвалі свого будинку життя хлопчика зміниться найдивовижнішим чином. Йому доведеться проявити справжню хоробрість і на пару з мисливицем за привидами Хетті допомогти Хьюго повернутися до себе додому. Для цього героям потрібно пройти через масу перешкод, щоб знищити Стародавній Дух Льоду, який живе в будинку Хьюго, і загрожує повалити все місто у вічну мерзлоту. Але для того, щоб зробити подвиги, Тому і Хетті потрібно буде заглянути до себе в серце...
Url                         : https://toloka.to/t76915

Video
ID                          : 1
Format                      : AVC
Format/Info                 : Advanced Video Codec
Format profile              : [email protected]
Format settings, CABAC      : Yes
Format settings, ReFrames   : 4 frames
Codec ID                    : V_MPEG4/ISO/AVC
Duration                    : 1 h 38 min
Bit rate                    : 5 500 kb/s
Width                       : 1 280 pixels
Height                      : 534 pixels
Display aspect ratio        : 2.40:1
Original display aspect rat : 2.40:1
Frame rate mode             : Constant
Frame rate                  : 23.976 (24000/1001) FPS
Color space                 : YUV
Chroma subsampling          : 4:2:0
Bit depth                   : 8 bits
Scan type                   : Progressive
Bits/(Pixel*Frame)          : 0.336
Stream size                 : 3.66 GiB (90%)
Title                       : Пастка для привида / Gespensterjäger / Ghosthunters: On Icy Trails (2015) 720p [RARBG]
Writing library             : core 144 r96 40bb568
Encoding settings           : cabac=1 / ref=4 / deblock=1:-2:-2 / analyse=0x3:0x113 / me=umh / subme=7 / psy=1 / psy_rd=1.00:0.15 / mixed_ref=1 / me_range=16 / chroma_me=1 / trellis=1 / 8x8dct=1 / cqm=0 / deadzone=21,11 / fast_pskip=1 / chroma_qp_offset=-3 / threads=12 / lookahead_threads=3 / sliced_threads=0 / nr=0 / decimate=1 / interlaced=0 / bluray_compat=0 / constrained_intra=0 / bframes=3 / b_pyramid=2 / b_adapt=2 / b_bias=0 / direct=3 / weightb=1 / open_gop=0 / weightp=2 / keyint=250 / keyint_min=25 / scenecut=40 / intra_refresh=0 / rc_lookahead=50 / rc=abr / mbtree=1 / bitrate=5500 / ratetol=1.0 / qcomp=0.60 / qpmin=0 / qpmax=69 / qpstep=4 / vbv_maxrate=31250 / vbv_bufsize=31250 / nal_hrd=none / filler=0 / ip_ratio=1.40 / aq=1:1.00
Language                    : English
Default                     : Yes
Forced                      : No

Audio #1
ID                          : 2
Format                      : AC-3
Format/Info                 : Audio Coding 3
Mode extension              : CM (complete main)
Format settings, Endianness : Big
Codec ID                    : A_AC3
Duration                    : 1 h 38 min
Bit rate mode               : Constant
Bit rate                    : 192 kb/s
Channel(s)                  : 2 channels
Channel positions           : Front: L R
Sampling rate               : 48.0 kHz
Frame rate                  : 31.250 FPS (1536 spf)
Compression mode            : Lossy
Stream size                 : 136 MiB (3%)
Title                       : Dub, 2.0 [stereo] 192 Kbps [Hurtom-covenant]
Language                    : Ukrainian
Default                     : Yes
Forced                      : No

Audio #2
ID                          : 3
Format                      : AC-3
Format/Info                 : Audio Coding 3
Mode extension              : CM (complete main)
Format settings, Endianness : Big
Codec ID                    : A_AC3
Duration                    : 1 h 38 min
Bit rate mode               : Constant
Bit rate                    : 384 kb/s
Channel(s)                  : 6 channels
Channel positions           : Front: L C R, Side: L R, LFE
Sampling rate               : 48.0 kHz
Frame rate                  : 31.250 FPS (1536 spf)
Compression mode            : Lossy
Stream size                 : 271 MiB (7%)
Title                       : Original, 5.1 384 Kbps
Language                    : English
Default                     : No
Forced                      : No

Menu
00:00:00.000                : en:Chapter 01
00:07:07.927                : en:Chapter 02
00:15:50.824                : en:Chapter 03
00:25:28.693                : en:Chapter 04
00:32:54.430                : en:Chapter 05
00:40:22.420                : en:Chapter 06
00:49:44.189                : en:Chapter 07
00:58:54.697                : en:Chapter 08
01:07:35.134                : en:Chapter 09
01:14:43.729                : en:Chapter 10
01:21:47.986                : en:Chapter 11
01:29:44.796                : en:Chapter 12
Скріншоти
будуть
Джерело: &
Подяка за українську доріжку п.Covenant


Український звук придбано завдяки темі "Контент для придбання" - прохання підтримати!



 Трекер:    Зареєстрований   

Завантажити / скачати фільм українською



відео для новачків



 Зареєстрований:   2016-10-23 13:34
 Розмір:   4.06 GB 
 Оцінка фільму:   4.4/10 (Голосів: 16)
   
Інші релізи
Ваш часовий пояс: GMT + 2 Години

Нова тема   Відповісти