Завантажити та скачати торренти українською


Мисливці на привидів [Театральна версія] / Ghostbusters [Theatrical Version] (2016) 1080p 3D [HalfOverUnder] Ukr/Eng | Sub Ukr/Eng

Нові коментарі

Нова тема   Відповісти
Автор Повідомлення
-VipeR- 
VIP


З нами з: 17.07.08
Востаннє: 09.12.16
Повідомлень: 275

2016-10-21 15:27  
Мисливці на привидів [Театральна версія] / Ghostbusters [Theatrical Version] (2016) 1080p 3D [HalfOverUnder] Ukr/Eng | Sub Ukr/Eng

Мисливці на привидів [Театральна версія] / Ghostbusters [Theatrical Version] (2016) 1080p 3D [HalfOverUnder] Ukr/Eng | Sub Ukr/Eng


Жанр: екшн, комедія
Країна: США, Австралія



Кінокомпанія: Columbia Pictures, Feigco Entertainment, Ghostcorps
Режисер: Пол Фіґ / Paul Feig
Актори: Мелісса МакКарті / Melissa McCarthy, Крістен Віґ / Kristen Wiig, Кейт Маккіннон / Kate McKinnon, Леслі Джонс / Leslie Jones, Кріс Гемсворт / Chris Hemsworth, Сесілі Стронґ / Cecily Strong, Енді Ґарсія / Andy Garcia, Метт Волш / Matt Walsh, Ніл Кейсі / Neil Casey, Чарльз Денс / Charles Dance, Майкл Кеннет Вільямс / Michael Kenneth Williams та інші

Сюжет:
Тридцять років тому мисливці за привидами врятували Нью-Йорк від навали привидів, але тепер місту знову загрожує небезпека. Колишні герої не можуть стати на його захист, але знаходяться і інші відважні люди, які все своє життя присвятили вивченню паранормальних явищ. Еббі Єйтс об'єднується з Ерін Ґілберт, мабуть найкращим фахівцем у квантовій фізиці, і разом вони збирають команду нових мисливців за привидами, в яку приймають відмінного інженера Джилліан Гольцман, співробітницю метрополітену Петті Толан, котра знає місто як свої п'ять пальців, і секретаря - красеня Кевіна. Разом вони починають боротьбу з нечистою силою, що тероризує мегаполіс...


Тривалість: 01:56:38 [Театральна версія]
Якість: 1080p 3D [HalfOverUnder] by ash61
Відео:
кодек:
розмір кадру: 1920 х 1080
бітрейт: 12 мбіт/с

Аудіо # 1:
мова: українська
переклад: професійний дубльований
кодек: 5.1
бітрейт: 384 кб/с

Аудіо # 2:
мова: англійська
переклад: професійний дубльований
кодек: 5.1
бітрейт: 640 кб/с

Субтитри:
мова: українська (Форсовані, Повні)
тип: програмні (м'які)
формат: *.srt

Субтитри:
мова: англійська (Full, SDH)
тип: програмні (м'які)
формат: *.srt
MediaInfo
Код:
General
Unique ID                      : 198715360648149644135436159353423739089 (0x957F2FB483F83BB0A2FDC852438538D1)
Complete name                  : D:\Фільми\Ghostbusters (2016) 1080p 3D [HalfOverUnder] [Ukr Eng] (Theatrical Cut).mkv
Format                         : Matroska
Format version                 : Version 4 / Version 2
File size                      : 10.6 GiB
Duration                       : 1 h 56 min
Overall bit rate               : 13.0 Mb/s
Movie name                     : Мисливці на привидів / Ghostbusters (2016) у 3D
Encoded date                   : UTC 2016-11-08 19:06:04
Writing application            : mkvmerge v9.4.0 ('Knurl') 64bit
Writing library                : libebml v1.3.4 + libmatroska v1.4.5
Cover                          : Yes
Attachments                    : cover.jpg

Video
ID                             : 1
Format                         : AVC
Format/Info                    : Advanced Video Codec
Format profile                 : [email protected]
Format settings, CABAC         : Yes
Format settings, ReFrames      : 4 frames
Codec ID                       : V_MPEG4/ISO/AVC
Duration                       : 1 h 56 min
Bit rate                       : 12.0 Mb/s
Width                          : 1 920 pixels
Height                         : 1 080 pixels
Display aspect ratio           : 16:9
Frame rate mode                : Constant
Frame rate                     : 23.976 (24000/1001) FPS
Color space                    : YUV
Chroma subsampling             : 4:2:0
Bit depth                      : 8 bits
Scan type                      : Progressive
Bits/(Pixel*Frame)             : 0.241
Stream size                    : 9.78 GiB (92%)
Title                          : by Ash61
Writing library                : core 146 r2538 121396c
Encoding settings              : cabac=1 / ref=4 / deblock=1:-3:-3 / analyse=0x3:0x113 / me=umh / subme=10 / psy=1 / psy_rd=1.00:0.00 / mixed_ref=1 / me_range=32 / chroma_me=1 / trellis=2 / 8x8dct=1 / cqm=0 / deadzone=21,11 / fast_pskip=1 / chroma_qp_offset=-2 / threads=12 / lookahead_threads=3 / sliced_threads=0 / nr=0 / decimate=1 / interlaced=0 / bluray_compat=0 / constrained_intra=0 / bframes=10 / b_pyramid=2 / b_adapt=2 / b_bias=0 / direct=3 / weightb=1 / open_gop=0 / weightp=2 / keyint=250 / keyint_min=23 / scenecut=40 / intra_refresh=0 / rc_lookahead=60 / rc=crf / mbtree=1 / crf=16.0 / qcomp=0.70 / qpmin=0 / qpmax=69 / qpstep=4 / vbv_maxrate=40000 / vbv_bufsize=30000 / crf_max=0.0 / nal_hrd=none / filler=0 / frame-packing=4 / ip_ratio=1.40 / aq=1:0.70
Language                       : English
Default                        : Yes
Forced                         : No

Audio #1
ID                             : 2
Format                         : AC-3
Format/Info                    : Audio Coding 3
Mode extension                 : CM (complete main)
Format settings, Endianness    : Big
Codec ID                       : A_AC3
Duration                       : 1 h 56 min
Bit rate mode                  : Constant
Bit rate                       : 384 kb/s
Channel(s)                     : 6 channels
Channel positions              : Front: L C R, Side: L R, LFE
Sampling rate                  : 48.0 kHz
Frame rate                     : 31.250 FPS (1536 spf)
Compression mode               : Lossy
Stream size                    : 320 MiB (3%)
Title                          : Дубляж BD
Language                       : Ukrainian
Default                        : Yes
Forced                         : No

Audio #2
ID                             : 3
Format                         : AC-3
Format/Info                    : Audio Coding 3
Mode extension                 : CM (complete main)
Format settings, Endianness    : Big
Codec ID                       : A_AC3
Duration                       : 1 h 56 min
Bit rate mode                  : Constant
Bit rate                       : 640 kb/s
Channel(s)                     : 6 channels
Channel positions              : Front: L C R, Side: L R, LFE
Sampling rate                  : 48.0 kHz
Frame rate                     : 31.250 FPS (1536 spf)
Compression mode               : Lossy
Stream size                    : 534 MiB (5%)
Title                          : Original
Language                       : English
Default                        : No
Forced                         : No

Text #1
ID                             : 4
Format                         : UTF-8
Codec ID                       : S_TEXT/UTF8
Codec ID/Info                  : UTF-8 Plain Text
Duration                       : 1 h 43 min
Bit rate                       : 1 b/s
Count of elements              : 24
Stream size                    : 1.17 KiB (0%)
Title                          : Форсовані
Language                       : Ukrainian
Default                        : No
Forced                         : No

Text #2
ID                             : 5
Format                         : UTF-8
Codec ID                       : S_TEXT/UTF8
Codec ID/Info                  : UTF-8 Plain Text
Duration                       : 1 h 55 min
Bit rate                       : 119 b/s
Count of elements              : 2041
Stream size                    : 101 KiB (0%)
Title                          : Повні
Language                       : Ukrainian
Default                        : No
Forced                         : No

Text #3
ID                             : 6
Format                         : UTF-8
Codec ID                       : S_TEXT/UTF8
Codec ID/Info                  : UTF-8 Plain Text
Duration                       : 1 h 55 min
Bit rate                       : 90 b/s
Count of elements              : 2252
Stream size                    : 76.2 KiB (0%)
Title                          : Full
Language                       : English
Default                        : No
Forced                         : No

Text #4
ID                             : 7
Format                         : UTF-8
Codec ID                       : S_TEXT/UTF8
Codec ID/Info                  : UTF-8 Plain Text
Duration                       : 1 h 55 min
Bit rate                       : 98 b/s
Count of elements              : 2519
Stream size                    : 83.7 KiB (0%)
Title                          : SDH
Language                       : English
Default                        : No
Forced                         : No

Menu
00:00:00.000                   : :1
00:08:24.295                   : :2
00:15:21.754                   : :3
00:19:59.239                   : :4
00:25:27.901                   : :5
00:33:55.950                   : :6
00:39:04.132                   : :7
00:45:24.304                   : :8
00:51:51.108                   : :9
00:56:33.347                   : :10
01:01:52.416                   : :11
01:07:04.103                   : :12
01:15:43.287                   : :13
01:23:30.337                   : :14
01:32:41.639                   : :15
01:42:49.579                   : :16
Скріншоти
Джерело: &
Особиста оцінка: 6 - третій сорт - не брак

Відео для перегляду на 3D обладнанні!


Золотий реліз (завантажене не впливає на рейтинг)
 Трекер:    Зареєстрований   

Завантажити / скачати фільм українською



відео для новачків



 Зареєстрований:   2016-11-08 21:58
 Розмір:   10.61 GB 
 Оцінка фільму:   6/10 (Голосів: 5)
   
-VipeR- 
VIP


З нами з: 17.07.08
Востаннє: 09.12.16
Повідомлень: 275

2016-11-08 22:00  
Реліз оновлено!

Оновлено українську доріжку на доріжку з Blu-ray!

igor911 
Відео Гуртом
Відео Гуртом


З нами з: 18.01.08
Востаннє: 09.12.16
Повідомлень: 5206

2016-11-08 22:01  
Золото на тиждень для заохочення підтримки роздачі.
kino.girl 
Частий відвідувач


З нами з: 06.11.15
Востаннє: 30.11.16
Повідомлень: 25

2016-11-09 22:05  
а що значить "театральна версія"? підкажіть юудь-ласка, чим вона відрізняється від інших версій? дякую
igor911 
Відео Гуртом
Відео Гуртом


З нами з: 18.01.08
Востаннє: 09.12.16
Повідомлень: 5206

2016-11-09 22:07  
kino.girl, така, як показували у кінотеатрах. Бо є ще розширена версія - Порівняння Театральної та Розширеної версій
Ваш часовий пояс: GMT + 2 Години

Нова тема   Відповісти