Завантажити та скачати торренти українською


I.T. / I.T. (2016) 1080p Ukr/Eng | Sub Eng

Нові коментарі

Нова тема   Відповісти
Автор Повідомлення
Anonymous 







2016-10-20 18:02  
I.T. / I.T. (2016) 1080p Ukr/Eng | Sub Eng

I.T. / I.T. (2016) 1080p Ukr/Eng | Sub Eng

Оригінальний постер


повнорозмірне зображення відкриється по кліку (з натиснутим CTRL чи кліком середньою кнопкою мишки - у новій вкладці)


Жанр: трилер, драма, детектив, кримінальний
Країна: Ірландія, Франція, США



Кінокомпанія: Voltage Pictures, Voltage Films, Friendly Films (II), Irish DreamTime, Mutressa Movies, 22h22, Fastnet Films
Режисер: Джон Мур / John Moore
Актори: Пірс Броснан / Pierce Brosnan, Джейсон Беррі / Jason Barry, Брайн Ф. Мулвей / Brian F. Mulvey, Анна Фріл / Anna Friel, Стефані Скотт / Stefanie Scott, Мікаел Нюквіст / Michael Nyqvist, Джеймс Фрешвілл / James Frecheville, Клер-Хоуп Ешіті / Clare-Hope Ashitey та інші

Сюжет:
У Майка Рігана є все: чудова дружина, красуня-донька та ідеальний будинок. Життя Майка цілком складається з останніх технічних новинок. Його компанія стоїть на порозі відкриття, яке змінить бізнес приватної авіації назавжди, але у його IT-фахівця Еда Портера своя думка з цього приводу... Виною всьому як завжди любов: у Еда і дочки Рігана роман, який Майк хоче припинити. Знав би він, до чого може привести таке рішення...

офіційний український трейлер


Вікова категорія: 16+

Тривалість: 01:35:36
Якість: 1080p
Відео:
кодек:
розмір кадру: 1920 х 808
бітрейт: 9904 Кбіт/с

Аудіо # 1:
мова: українська
переклад: професійний дубльований
кодек: 2.0
бітрейт: 192 Кбіт/с

Аудіо # 2:
мова: англійська
переклад: оригінал
кодек: 5.1
бітрейт: 1509 Кбіт/с

Субтитри:
мова: англійська
тип: програмні (м'які)
формат: *.srt

Збережено оригінальні розділи, як на Blu-ray.
MediaInfo
Код:
Complete name               : I.T. (2016) [Ukr,Eng sub.Eng] 1080p [Hurtom].mkv
Format                      : Matroska
Format version              : Version 4 / Version 2
File size                   : 7.78 GiB
Duration                    : 1 h 35 min
Overall bit rate            : 11.6 Mb/s
Movie name                  : І.Т. / I.T. (2016) [Ukr,Eng sub.Eng] 1080p [Hurtom]

Video
ID                          : 1
Format                      : AVC
Format/Info                 : Advanced Video Codec
Format profile              : [email protected]
Format settings, CABAC      : Yes
Format settings, ReFrames   : 5 frames
Codec ID                    : V_MPEG4/ISO/AVC
Duration                    : 1 h 35 min
Bit rate                    : 9 904 kb/s
Width                       : 1 920 pixels
Height                      : 808 pixels
Display aspect ratio        : 2.40:1
Frame rate mode             : Constant
Frame rate                  : 23.976 FPS
Color space                 : YUV
Chroma subsampling          : 4:2:0
Bit depth                   : 8 bits
Scan type                   : Progressive
Bits/(Pixel*Frame)          : 0.266
Stream size                 : 6.64 GiB (85%)
Title                       : І.Т. / I.T. (2016) 1080p [ROVERS]
Writing library             : core 148 r2705 3f5ed56
Encoding settings           : cabac=1 / ref=5 / deblock=1:0:0 / analyse=0x3:0x133 / me=umh / subme=7 / psy=1 / psy_rd=1.00:0.00 / mixed_ref=1 / me_range=16 / chroma_me=1 / trellis=1 / 8x8dct=1 / cqm=0 / deadzone=21,11 / fast_pskip=0 / chroma_qp_offset=-2 / threads=12 / lookahead_threads=2 / sliced_threads=0 / nr=0 / decimate=1 / interlaced=0 / bluray_compat=0 / constrained_intra=0 / bframes=3 / b_pyramid=2 / b_adapt=1 / b_bias=0 / direct=1 / weightb=1 / open_gop=0 / weightp=2 / keyint=250 / keyint_min=23 / scenecut=40 / intra_refresh=0 / rc_lookahead=40 / rc=2pass / mbtree=1 / bitrate=9904 / ratetol=1.0 / qcomp=0.60 / qpmin=0 / qpmax=69 / qpstep=4 / cplxblur=20.0 / qblur=0.5 / ip_ratio=1.40 / aq=1:1.00
Language                    : English
Default                     : Yes
Forced                      : No

Audio #1
ID                          : 2
Format                      : AC-3
Format/Info                 : Audio Coding 3
Mode extension              : CM (complete main)
Format settings, Endianness : Big
Codec ID                    : A_AC3
Duration                    : 1 h 35 min
Bit rate mode               : Constant
Bit rate                    : 192 kb/s
Channel(s)                  : 2 channels
Channel positions           : Front: L R
Sampling rate               : 48.0 kHz
Frame rate                  : 31.250 FPS (1536 spf)
Compression mode            : Lossy
Stream size                 : 132 MiB (2%)
Title                       : Dub, 2.0 192 Kbps [Hurtom]
Language                    : Ukrainian
Default                     : Yes
Forced                      : No

Audio #2
ID                          : 3
Format                      :
Format/Info                 : Digital Theater Systems
Mode                        : 16
Format settings, Endianness : Big
Codec ID                    : A_DTS
Duration                    : 1 h 35 min
Bit rate mode               : Constant
Bit rate                    : 1 509 kb/s
Channel(s)                  : 6 channels
Channel positions           : Front: L C R, Side: L R, LFE
Sampling rate               : 48.0 kHz
Frame rate                  : 93.750 FPS (512 spf)
Bit depth                   : 24 bits
Compression mode            : Lossy
Stream size                 : 1.01 GiB (13%)
Title                       : Original, 5.1 1509 Kbps
Language                    : English
Default                     : No
Forced                      : No

Text
ID                          : 4
Format                      : UTF-8
Codec ID                    : S_TEXT/UTF8
Codec ID/Info               : UTF-8 Plain Text
Duration                    : 1 h 29 min
Bit rate                    : 49 b/s
Count of elements           : 1067
Stream size                 : 32.3 KiB (0%)
Title                       : Full
Language                    : English
Default                     : No
Forced                      : No

Menu
00:00:00.000                : en:00:00:00.000
00:09:44.667                : en:00:09:44.667
00:19:59.824                : en:00:19:59.824
00:29:33.563                : en:00:29:33.563
00:41:44.627                : en:00:41:44.627
00:52:07.958                : en:00:52:07.958
01:00:43.932                : en:01:00:43.932
01:14:08.819                : en:01:14:08.819
01:22:11.593                : en:01:22:11.593
01:31:53.341                : en:01:31:53.341




Підтримати купівлю інших фільмів можна тут



Джерело: &
За українську доріжку подяка Hanway'ю та AngryBirdsUA.


 Трекер:    Зареєстрований   

Завантажити / скачати фільм українською



відео для новачків



 Зареєстрований:   2016-10-30 12:39
 Розмір:   7.78 GB 
 Оцінка фільму:   4.7/10 (Голосів: 26)
   
Інші релізи
   Світське життя / Café Society (2016) Remux 1080p Ukr/Eng staf777  6 / 6   23.83 GB   2016-12-02 20:47 
   I.T. / I.T. (2016) 720p Ukr/Eng | Sub Eng 11FrYkT  20 / 0   3.77 GB   2016-11-02 17:32 
   I.T. / I.T. (2016) AngryBirdsUA  202 / 1   1.45 GB   2016-10-30 09:17 
   Бетмен проти Супермена: На зорі справедливості [Розширена версія] / Batman v Superman: Dawn of Justice [Extended Ultimate Edition] (2016) AVC Ukr/Eng | Sub Ukr/Eng 11FrYkT  25 / 1   3.3 GB   2016-10-21 17:13 
   Світське життя / Café Society (2016) 1080p Ukr/Eng | Sub Eng 11FrYkT  23 / 0   9.66 GB   2016-10-18 19:18 
   Світське життя / Café Society (2016) Gelios  137 / 3   1.45 GB   2016-10-17 22:59 
   Світське життя / Café Society (2016) 720p Ukr/Eng | Sub Eng 11FrYkT  36 / 0   4.51 GB   2016-10-17 22:56 
   Джульєтта / Julieta (2016) 720p Ukr/Spa | Sub Eng igor911  16 / 0   5.04 GB   2016-10-10 23:03 
   Джульєтта / Julieta (2016) AngryBirdsUA  31 / 0   1.45 GB   2016-10-10 20:00 
   Бетмен проти Супермена: На зорі справедливості [Розширена версія] / Batman v Superman: Dawn of Justice [Extended Ultimate Edition] (2016) 1080p Ukr/Eng | Sub Ukr/Eng Demrandir  11 / 0   15.98 GB   2016-09-27 15:53 
   Бетмен проти Супермена: На зорі справедливості [Розширена версія] / Batman v Superman: Dawn of Justice [Extended Ultimate Edition] (2016) [2.0 ] Український дубляж + вставки оригіналу | Sub Ukr Demrandir  2 / 1   251 MB   2016-09-27 15:46 
   Бетмен проти Супермена: На зорі справедливості [Розширена версія] / Batman v Superman: Dawn of Justice [Extended Ultimate Edition] (2016) 1080p 3D [HalfOverUnder] Ukr/Eng | Sub Ukr/Eng GEORGKys  3 / 1   25.29 GB   2016-09-18 21:46 
bot 
робот


З нами з: 30.09.07
Востаннє: 26.05.05
Повідомлень: 15975

2016-10-30 12:39  
Тему перенесено з Анонси релізів до форуму Фільми в HD


igor911

Jogino 
Новенький


З нами з: 21.04.13
Востаннє: 24.11.16
Повідомлень: 9

2016-10-30 20:06  
Нудний фільм. Багато сучасних термінів, проте сюжет убогий. Головний герой на хакера зовсім не схожий, радше на модель для реклами нижньої білизни Calvin Klein.
waldi-hurtom 
VIP


З нами з: 07.10.12
Востаннє: 02.12.16
Повідомлень: 611

2016-10-31 14:49  
Повна лажа. 1 з 10.
Mant1kor 
Частий відвідувач


З нами з: 27.10.10
Востаннє: 02.12.16
Повідомлень: 41

2016-11-01 23:02  
Дивлюсь фільм, і в мене як в ІТ-шника пригорає гузно від того що я бачу.
oster_ok 
Відео Гуртом - підтримка та поширення
Відео Гуртом - підтримка та поширення


З нами з: 20.11.11
Востаннє: 02.12.16
Повідомлень: 38

2016-11-05 01:19  
непоганий фільм. Якраз на один раз глянути.
5 / 10 за Пірса Броснана

Ваш часовий пояс: GMT + 2 Години

Нова тема   Відповісти