Завантажити та скачати торренти українською


Дитинство лідера / The Childhood of a Leader (2015) 720p Ukr/Eng | Sub Eng

Нові коментарі

Нова тема   Відповісти
Автор Повідомлення
Anonymous 







2016-10-19 23:09  
Дитинство лідера / The Childhood of a Leader (2015) 720p Ukr/Eng | Sub Eng

Дитинство лідера / The Childhood of a Leader (2015) 720p Ukr/Eng | Sub Eng


Жанр: артхаус, драма, жахи, детектив
Країна: Велика Британія, Франція, Бельгія

Премія Луїджі де Лаурентіса та "Венеціанські обрії - найкращий режиссер" Венеціанського кінофестивалю-2015



Кінокомпанія: Bow and Arrow Entertainment, Bron Capital Partners, FilmTeam
Режисер: Брейді Корбет / Brady Corbet
Актори: Роберт Патінсон / Robert Pattinson, Береніс Бежо / Bérénice Bejo, Ліам Каннінгем / Liam Cunningham, Стейсі Мартін / Stacy Martin, Софі Кертіс / Sophie Lane Curtis, Ребекка Дайан / Rebecca Dayan, Скотт Александр Янг / Scott Alexander Young, Джеремі Вілер / Jeremy Wheeler, Керолайн Болтон / Caroline Boulton, Лука Берковічі / Luca Bercovici та інші

Сюжет:
Події драми розгортаються у Франції в 1918 році. У родині американського дипломата (Ліам Каннінгем) та його дружини (Береніс Бежо) підростає син на ім'я Прескотт (Том Світ, Роберт Паттінсон). Стаючи мимовільним свідком ділових розмов батька, хлопчик формує своє ставлення до світового порядку. Разом з цим, надмірний деспотизм батьків призводить до того, що з Прескотта виростає тиран і диктатор, рівних якому світ ще не бачив.

офіційний трейлер (укр.субтитри):


Вікова категорія: 16+

Тривалість: 01:50:55
Якість: 720p
Відео:
кодек:
розмір кадру: 1280 х 720
бітрейт: 3720 Кбіт/с

Аудіо # 1:
мова: українська
переклад: багатоголосий закадровий | ААА-sound
кодек: 5.1
бітрейт: 384 Кбіт/с
Інформація про озвучення
Режисер: Олександар Єфімов
Ролі озвучили: Юлія Перенчук, Дмитро Завадський, Ірина Грей, Андрій Федінчик, Андрій Альохін, Юрій Ребрик, Олександар Єфімов та інші

Фільм озвучено студією ААА-sound у 2016 році на замовлення компанії "Вольга-Україна"
Аудіо # 2:
мова: англійська
переклад: оригінал
кодек: 5.1
бітрейт: 384 Кбіт/с

Субтитри:
мова: англійська
тип: програмні (м'які)
формат: *.srt
MediaInfo
Код:
Complete name               : The Childhood of a Leader (2015) [Ukr,Eng sub.Eng] 720p [Hurtom].mkv
Format                      : Matroska
Format version              : Version 4 / Version 2
File size                   : 3.48 GiB
Duration                    : 1 h 50 min
Overall bit rate            : 4 492 kb/s
Movie name                  : Дитинство лідера / The Childhood of a Leader (2015) [Ukr,Eng sub.Eng] 720p [Hurtom] by igor911
Released date               : 2015
Cover                       : Yes
Comment                     : http://www.imdb.com/title/tt2815902/
Attachments                 : cover.jpg
ARTIST                      : Роберт Паттінсон / Robert Pattinson, Береніс Бежо / Bérénice Bejo, Ліам Каннінгем / Liam Cunningham, Стейсі Мартін / Stacy Martin, Софі Кертіс / Sophie Lane Curtis, Ребекка Дайан / Rebecca Dayan, Скотт Александр Янг / Scott Alexander Young, Джеремі Вілер / Jeremy Wheeler, Керолайн Болтон / Caroline Boulton, Лука Берковічі / Luca Bercovici та інші
DIRECTOR                    : Брейді Корбет / Brady Corbet
GENRE                       : драма, жахи, детектив
SYNOPSIS                    : Події драми розгортаються у Франції в 1918 році. У родині американського дипломата (Ліам Каннінгем) та його дружини (Береніс Бежо) підростає син на ім'я Прескотт (Том Світ, Роберт Паттінсон). Стаючи мимовільним свідком ділових розмов батька, хлопчик формує своє ставлення до світового порядку. Разом з цим, надмірний деспотизм батьків призводить до того, що з Прескотта виростає тиран і диктатор, рівних якому світ ще не бачив.
Url                         : https://toloka.to/t76822

Video
ID                          : 1
Format                      : AVC
Format/Info                 : Advanced Video Codec
Format profile              : [email protected]
Format settings, CABAC      : Yes
Format settings, ReFrames   : 4 frames
Codec ID                    : V_MPEG4/ISO/AVC
Duration                    : 1 h 50 min
Bit rate                    : 3 720 kb/s
Width                       : 1 280 pixels
Height                      : 720 pixels
Display aspect ratio        : 16:9
Frame rate mode             : Constant
Frame rate                  : 25.000 FPS
Color space                 : YUV
Chroma subsampling          : 4:2:0
Bit depth                   : 8 bits
Scan type                   : Progressive
Bits/(Pixel*Frame)          : 0.161
Stream size                 : 2.88 GiB (83%)
Title                       : Дитинство лідера / The Childhood of a Leader (2015) 720p [iFT]
Writing library             : core 142 r2431+42 c69a006 tMod [[email protected] X86_64]
Encoding settings           : cabac=1 / ref=3 / deblock=1:-3:-3 / analyse=0x3:0x133 / me=umh / subme=8 / psy=1 / fade_compensate=0.00 / psy_rd=1.05:1.08 / mixed_ref=1 / me_range=48 / chroma_me=1 / trellis=2 / 8x8dct=1 / cqm=0 / deadzone=21,11 / fast_pskip=0 / chroma_qp_offset=-4 / threads=16 / lookahead_threads=2 / sliced_threads=0 / nr=0 / decimate=0 / interlaced=0 / bluray_compat=0 / constrained_intra=0 / fgo=0 / bframes=3 / b_pyramid=2 / b_adapt=2 / b_bias=0 / direct=3 / weightb=1 / open_gop=0 / weightp=2 / keyint=250 / keyint_min=25 / scenecut=40 / intra_refresh=0 / rc_lookahead=150 / rc=2pass / mbtree=0 / bitrate=3720 / ratetol=1.0 / qcomp=0.80 / qpmin=0:0:0 / qpmax=69:69:69 / qpstep=4 / cplxblur=20.0 / qblur=0.5 / vbv_maxrate=40000 / vbv_bufsize=30000 / nal_hrd=none / filler=0 / ip_ratio=1.40 / pb_ratio=1.30 / aq=2:0.68 / aq-sensitivity=10.00 / aq-factor=1.00:1.00:1.00 / aq2=0 / aq3=0
Language                    : English
Default                     : Yes
Forced                      : No
Color range                 : Limited
Color primaries             : BT.709
Transfer characteristics    : BT.709
Matrix coefficients         : BT.709

Audio #1
ID                          : 2
Format                      : AC-3
Format/Info                 : Audio Coding 3
Mode extension              : CM (complete main)
Format settings, Endianness : Big
Codec ID                    : A_AC3
Duration                    : 1 h 50 min
Bit rate mode               : Constant
Bit rate                    : 384 kb/s
Channel(s)                  : 6 channels
Channel positions           : Front: L C R, Side: L R, LFE
Sampling rate               : 48.0 kHz
Frame rate                  : 31.250 FPS (1536 spf)
Compression mode            : Lossy
Stream size                 : 305 MiB (9%)
Title                       : MVO [AAA-sound, iTunes] 5.1 384 Kbps [Hurtom]
Language                    : Ukrainian
Default                     : Yes
Forced                      : No

Audio #2
ID                          : 3
Format                      : AC-3
Format/Info                 : Audio Coding 3
Mode extension              : CM (complete main)
Format settings, Endianness : Big
Codec ID                    : A_AC3
Duration                    : 1 h 50 min
Bit rate mode               : Constant
Bit rate                    : 384 kb/s
Channel(s)                  : 6 channels
Channel positions           : Front: L C R, Side: L R, LFE
Sampling rate               : 48.0 kHz
Frame rate                  : 31.250 FPS (1536 spf)
Compression mode            : Lossy
Stream size                 : 305 MiB (9%)
Title                       : Original, 5.1 384 Kbps
Language                    : English
Default                     : No
Forced                      : No

Text
ID                          : 4
Format                      : UTF-8
Codec ID                    : S_TEXT/UTF8
Codec ID/Info               : UTF-8 Plain Text
Duration                    : 1 h 48 min
Bit rate                    : 42 b/s
Count of elements           : 1100
Stream size                 : 33.4 KiB (0%)
Language                    : English
Default                     : No
Forced                      : No


Джерело: &
Подяка за українську доріжку п.AngryBirdsUA




ЗАЛИШАЙТЕСЬ ЯКОМОГА ДОВШЕ НА РОЗДАЧІ!
СКАЧАВ САМ - ДАЙ СКАЧАТИ ІНШИМ


 Трекер:    Зареєстрований   

Завантажити / скачати фільм українською



відео для новачків



 Зареєстрований:   2016-10-20 13:09
 Розмір:   3.48 GB 
 Оцінка фільму:   2.9/10 (Голосів: 14)
   
Інші релізи
bot 
робот


З нами з: 30.09.07
Востаннє: 26.05.05
Повідомлень: 16004

2016-10-20 13:08  
Тему перенесено з Анонси релізів до форуму Фільми в HD


igor911

Ваш часовий пояс: GMT + 2 Години

Нова тема   Відповісти