Завантажити та скачати торренти українською


Капітан Фантастік / Captain Fantastic (2016) 720p Ukr/Eng | Sub Eng

Нові коментарі

Нова тема   Відповісти
Автор Повідомлення
Anonymous 







2016-10-19 21:42  
Капітан Фантастік / Captain Fantastic (2016) 720p Ukr/Eng | Sub Eng

Капітан Фантастік / Captain Fantastic (2016) 720p Ukr/Eng | Sub Eng

Альтернативні обкладинки та постери






повнорозмірні зображення відкриються по кліку (з натиснутим CTRL чи кліком середньою кнопкою мишки - у новій вкладці)


Жанр: драма, мелодрама, комедія
Країна: США


Переможець у номінації "Особливий погляд Каннського кінофестивалю - найкращий режиссер (Мет Росс)"



Кінокомпанія: Electric City Entertainment, Post Haste Digital, ShivHans Pictures
Режисер: Мет Росс / Matt Ross
Актори: Віґо Мортенсен / Viggo Mortensen, Джордж МакКей / George MacKay, Саманта Іслер / Samantha Isler, Анналіса Бассо / Annalise Basso, Ніколас Гемілтон / Nicholas Hamilton, Шрі Крукс / Shree Crooks, Стів Зан / Steve Zahn та інші

Сюжет:
Ці діти розмовляють декількома мовами, знають квантову фізику і розбираються у філософії. Вони живуть у лісі у повній гармонії з природою, вміють полювати й обходитися зі зброєю. Лише збіг обставин змушує їх покинути рідний будинок і вирушити у велике місто. Що буде, коли вони стикнуться з цивілізацією – коли на них навалиться світ ґаджетів і соціальних мереж, а разом з тим і перше кохання?

український трейлер


Рейтинг MPAA: R - особам до 17 років обов'язкова присутність батьків або дорослого опікуна
Вікова категорія: 16+

Тривалість: 01:59:29
Якість: 720p
Відео:
кодек:
розмір кадру: 1280 х 532
бітрейт: 5909 Кбіт/с

Аудіо # 1:
мова: українська
переклад: багатоголосий закадровий
кодек: 2.0
бітрейт: 192 Кбіт/с

Аудіо # 2:
мова: англійська
переклад: оригінал
кодек: 5.1
бітрейт: 640 Кбіт/с

Субтитри:
мова: англійська
тип: програмні (м'які)
формат: *.srt

Збережено оригінальні розділи, як на Blu-ray.
MediaInfo
Код:
Complete name               : Captain Fantastic (2016) [Ukr,Eng sub.Eng] 720p [Hurtom].mkv
Format                      : Matroska
Format version              : Version 4 / Version 2
File size                   : 5.63 GiB
Duration                    : 1 h 59 min
Overall bit rate            : 6 740 kb/s
Movie name                  : Капітан Фантастік / Captain Fantastic (2016) [Ukr,Eng sub.Eng] 720p [Hurtom]
Released date               : 2016
Cover                       : Yes
Comment                     : http://www.imdb.com/title/tt3553976/
Attachments                 : cover.jpg
ARTIST                      : Вігго Мортенсен / Viggo Mortensen, Джордж МакКей / George MacKay, Саманта Іслер / Samantha Isler, Анналіса Бассо / Annalise Basso, Ніколас Гемілтон / Nicholas Hamilton, Шрі Крукс / Shree Crooks, Стів Зан / Steve Zahn та інші
DIRECTOR                    : Мет Росс / Matt Ross
GENRE                       : драма, мелодрама, комедія
SYNOPSIS                    : Головний герой фільму – Бен (Вігго Мортенсен) – у сучасному суспільстві бачить одні недоліки. Він не вважає за потрібне віддавати дітей до школи. Та й все життя в соціумі здається йому неправильним. Тому разом з дружиною і шістьма дітьми він переїхав у глухі ліси. Тут сімейство полює та лазить по горах. Разом вони читають класичну літературу і вивчають філософію. Але із сучасним світом дітям все ж доведеться зіткнутися. Їхня мати проходить лікування в клініці і там кінчає життя самогубством. Щоб потрапити на похорон батько і діти вперше за 10 років виходять на люди.
Url                         : https://toloka.to/t76818

Video
ID                          : 1
Format                      : AVC
Format/Info                 : Advanced Video Codec
Format profile              : [email protected]
Format settings, CABAC      : Yes
Format settings, ReFrames   : 12 frames
Codec ID                    : V_MPEG4/ISO/AVC
Duration                    : 1 h 59 min
Bit rate                    : 5 909 kb/s
Width                       : 1 280 pixels
Height                      : 532 pixels
Display aspect ratio        : 2.40:1
Frame rate mode             : Constant
Frame rate                  : 23.976 (24000/1001) FPS
Color space                 : YUV
Chroma subsampling          : 4:2:0
Bit depth                   : 8 bits
Scan type                   : Progressive
Bits/(Pixel*Frame)          : 0.362
Stream size                 : 4.93 GiB (88%)
Title                       : Капітан Фантастік / Captain Fantastic (2016) 720p [ExKinoRay]
Writing library             : core 129 r2245 bc13772
Encoding settings           : cabac=1 / ref=12 / deblock=1:-3:-3 / analyse=0x3:0x133 / me=umh / subme=11 / psy=1 / psy_rd=1.05:0.05 / mixed_ref=1 / me_range=32 / chroma_me=1 / trellis=2 / 8x8dct=1 / cqm=0 / deadzone=21,11 / fast_pskip=0 / chroma_qp_offset=-3 / threads=12 / lookahead_threads=2 / sliced_threads=0 / nr=0 / decimate=1 / interlaced=0 / bluray_compat=0 / constrained_intra=0 / bframes=8 / b_pyramid=2 / b_adapt=2 / b_bias=0 / direct=3 / weightb=1 / open_gop=0 / weightp=2 / keyint=250 / keyint_min=23 / scenecut=40 / intra_refresh=0 / rc_lookahead=60 / rc=2pass / mbtree=1 / bitrate=5909 / ratetol=1.0 / qcomp=0.60 / qpmin=0 / qpmax=69 / qpstep=4 / cplxblur=20.0 / qblur=0.5 / ip_ratio=1.40 / aq=1:0.80
Language                    : English
Default                     : Yes
Forced                      : No

Audio #1
ID                          : 2
Format                      : AC-3
Format/Info                 : Audio Coding 3
Mode extension              : CM (complete main)
Format settings, Endianness : Big
Codec ID                    : A_AC3
Duration                    : 1 h 59 min
Bit rate mode               : Constant
Bit rate                    : 192 kb/s
Channel(s)                  : 2 channels
Channel positions           : Front: L R
Sampling rate               : 48.0 kHz
Frame rate                  : 31.250 FPS (1536 spf)
Compression mode            : Lossy
Stream size                 : 164 MiB (3%)
Title                       : MVO 2.0 192 Kbps [Hurtom]
Language                    : Ukrainian
Default                     : Yes
Forced                      : No

Audio #2
ID                          : 3
Format                      : AC-3
Format/Info                 : Audio Coding 3
Mode extension              : CM (complete main)
Format settings, Endianness : Big
Codec ID                    : A_AC3
Duration                    : 1 h 59 min
Bit rate mode               : Constant
Bit rate                    : 640 kb/s
Channel(s)                  : 6 channels
Channel positions           : Front: L C R, Side: L R, LFE
Sampling rate               : 48.0 kHz
Frame rate                  : 31.250 FPS (1536 spf)
Compression mode            : Lossy
Stream size                 : 547 MiB (9%)
Title                       : Original, 5.1 640 Kbps
Language                    : English
Default                     : No
Forced                      : No

Text
ID                          : 4
Format                      : UTF-8
Codec ID                    : S_TEXT/UTF8
Codec ID/Info               : UTF-8 Plain Text
Duration                    : 1 h 51 min
Bit rate                    : 47 b/s
Count of elements           : 1324
Stream size                 : 39.2 KiB (0%)
Language                    : English
Default                     : No
Forced                      : No

Menu
00:00:00.000                : en:00:00:00.000
00:05:14.272                : en:00:05:14.272
00:11:12.046                : en:00:11:12.046
00:17:34.220                : en:00:17:34.220
00:25:20.728                : en:00:25:20.728
00:31:37.187                : en:00:31:37.187
00:37:41.509                : en:00:37:41.509
00:40:25.548                : en:00:40:25.548
00:46:10.601                : en:00:46:10.601
00:54:03.449                : en:00:54:03.449
00:59:34.696                : en:00:59:34.696
01:08:21.431                : en:01:08:21.431
01:14:08.486                : en:01:14:08.486
01:20:18.647                : en:01:20:18.647
01:24:30.774                : en:01:24:30.774
01:30:19.331                : en:01:30:19.331
01:36:52.807                : en:01:36:52.807
01:43:03.719                : en:01:43:03.719
01:48:23.163                : en:01:48:23.163
01:52:47.344                : en:01:52:47.344


Джерело: &
Подяка за українську доріжку п.AngryBirdsUA та п.Hanway




ЗАЛИШАЙТЕСЬ ЯКОМОГА ДОВШЕ НА РОЗДАЧІ!
СКАЧАВ САМ - ДАЙ СКАЧАТИ ІНШИМ


 Трекер:    Зареєстрований   

Завантажити / скачати фільм українською



відео для новачків



 Зареєстрований:   2016-10-19 22:16
 Розмір:   5.63 GB 
 Оцінка фільму:   6.6/10 (Голосів: 35)
   
Інші релізи
bot 
робот


З нами з: 30.09.07
Востаннє: 26.05.05
Повідомлень: 16027

2016-10-19 22:15  
Тему перенесено з Анонси релізів до форуму Фільми в HD


igor911

shroud 
Частий відвідувач


З нами з: 06.07.11
Востаннє: 07.12.16
Повідомлень: 25

2016-10-21 14:27  
Спочатку здався занудним, але добрий фільм. Вартий.
cubulkas 
Новенький


З нами з: 02.02.11
Востаннє: 07.12.16
Повідомлень: 1

2016-10-21 17:07  
Дякую за реліз
Anonymous 







2016-10-21 17:09  
cubulkas, для подяк є кнопка "дякую" у блоці завантаження.
morfst 
Новенький


З нами з: 31.05.14
Востаннє: 07.12.16
Повідомлень: 19

2016-10-21 19:59  
Дуже нудний фільм.
Maters 
VIP


З нами з: 27.03.12
Востаннє: 07.12.16
Повідомлень: 1161

2016-11-06 23:36  
morfst
Як на мене, то якраз зовсім навпаки

vitandre 
Новенький


З нами з: 02.09.11
Востаннє: 06.12.16
Повідомлень: 8

2016-11-24 10:01  
Цікавий фільм. Один раз подивитись можна, навіть пару смішних моментів є) Фільм показує що без соціуму ми ніхто.
Ваш часовий пояс: GMT + 2 Години

Нова тема   Відповісти