Завантажити та скачати торренти українською


Зупинись і гори (Сезон 3, Серії 1-7) / Halt and Catch Fire (Season 3, Episodes 1-7) (2016) AVC

Нові коментарі

Нова тема   Відповісти
Автор Повідомлення
krigg070 
Відео Гуртом - фільмокрай
Відео Гуртом - фільмокрай


З нами з: 29.10.14
Востаннє: 02.12.16
Повідомлень: 346

2016-10-17 22:37  
Зупинись і гори (Сезон 3, Серії 1-7) / Halt and Catch Fire (Season 3, Episodes 1-7) (2016) AVC



Жанр: драма
Країна: США



Кінокомпанія: AMC Studios
Творці серіалу: Крістофер Кентвелл, Крістофер Роджерс
Актори: Лі Пейс, Скут МакНейрі, Макензі Дейвіс, Кері Біше, Тобі Гас та інші

Сюжет:
Дія серіалу відбувається у вісімдесяті. Він розповідає про бум персональних комп’ютерів з погляду трьох персонажів – новатора, інженера і вундеркінда, чиї інновації кидають виклик тогочасним корпоративним велетням. Їхні особисті та професійні стосунки переживуть випробування жадобою та амбіціями і сформують нову культуру техаської Кремнієвої прерії.

Перелік серій
    Halt and Catch Fire. Season 3, Episode 01. Valley of the Heart's Delight
    Halt and Catch Fire. Season 3, Episode 02. One Way or Another
    Halt and Catch Fire. Season 3, Episode 03. Flipping the Switch
    Halt and Catch Fire. Season 3, Episode 04. Rules of Honorable Play
    Halt and Catch Fire. Season 3, Episode 05. Yerba Buena
    Halt and Catch Fire. Season 3, Episode 06. And She Was
    Halt and Catch Fire. Season 3, Episode 07. The Threshold
Тривалість: 1 серія: ~45:00 (цілком серій: 10)
Якість:
Відео:
кодек:
розмір кадру: 720 х 400
бітрейт: ~800 кб/с

Аудіо:
мова: українська
переклад: багатоголосий закадровий
кодек: 2.0
бітрейт: 128 кб/с

Скріншоти
MediaInfo
Код:
Video
ID                             : 1
Format                         : AVC
Format/Info                    : Advanced Video Codec
Format profile                 : [email protected]
Format settings, CABAC         : Yes
Format settings, ReFrames      : 5 frames
Codec ID                       : V_MPEG4/ISO/AVC
Duration                       : 43mn 56s
Bit rate                       : 780 Kbps
Width                          : 720 pixels
Height                         : 400 pixels
Display aspect ratio           : 16:9
Frame rate mode                : Constant
Frame rate                     : 23.976 (24000/1001) fps
Color space                    : YUV
Chroma subsampling             : 4:2:0
Bit depth                      : 8 bits
Scan type                      : Progressive
Bits/(Pixel*Frame)             : 0.113
Stream size                    : 245 MiB (86%)
Writing library                : core 148 r2597M e86f3a1
Encoding settings              : cabac=1 / ref=5 / deblock=1:-1:-1 / analyse=0x3:0x113 / me=umh / subme=9 / psy=1 / psy_rd=1.00:0.15 / mixed_ref=1 / me_range=16 / chroma_me=1 / trellis=2 / 8x8dct=1 / cqm=0 / deadzone=21,11 / fast_pskip=1 / chroma_qp_offset=-3 / threads=12 / lookahead_threads=1 / sliced_threads=0 / nr=0 / decimate=1 / interlaced=0 / bluray_compat=0 / constrained_intra=0 / bframes=3 / b_pyramid=2 / b_adapt=2 / b_bias=0 / direct=3 / weightb=1 / open_gop=0 / weightp=2 / keyint=250 / keyint_min=23 / scenecut=40 / intra_refresh=0 / rc_lookahead=50 / rc=crf / mbtree=1 / crf=19.0 / qcomp=0.60 / qpmin=0 / qpmax=69 / qpstep=4 / ip_ratio=1.40 / aq=1:1.00
Language                       : English
Default                        : Yes
Forced                         : No

Audio
ID                             : 2
Format                         : AC-3
Format/Info                    : Audio Coding 3
Mode extension                 : CM (complete main)
Format settings, Endianness    : Big
Codec ID                       : A_AC3
Duration                       : 43mn 56s
Bit rate mode                  : Constant
Bit rate                       : 128 Kbps
Channel(s)                     : 2 channels
Channel positions              : Front: L R
Sampling rate                  : 48.0 KHz
Frame rate                     : 31.250 fps (1536 spf)
Compression mode               : Lossy
Stream size                    : 40.2 MiB (14%)
Title                          : 2.0 @ 128 kbps - AMC
Language                       : Ukrainian
Default                        : Yes
Forced                         : No


Джерела та подяки:


Бронзовий реліз (на рейтинг впливає 75% завантаженого)
 Трекер:    Зареєстрований   

Завантажити / скачати серіал українською



відео для новачків



 Зареєстрований:   2016-12-01 23:24
 Розмір:   1.89 GB 
 Оцінка серіалу:   9.5/10 (Голосів: 14)
   
babusin 
Новенький


З нами з: 17.08.12
Востаннє: 19.11.16
Повідомлень: 1

2016-10-17 23:38  
супер серiал!
krigg070 
Відео Гуртом - фільмокрай
Відео Гуртом - фільмокрай


З нами з: 29.10.14
Востаннє: 02.12.16
Повідомлень: 346

2016-10-25 14:03  
+ 2 серія
Władysław Mackiewicz 
Частий відвідувач


З нами з: 21.07.16
Востаннє: 03.12.16
Повідомлень: 25

2016-10-31 13:16  
Коли буде продовження?
tar1k15 
Частий відвідувач


З нами з: 10.03.12
Востаннє: 03.12.16
Повідомлень: 35

2016-11-07 01:06  
Приєднуюсь до питання, і чи варто чекати на продовження взагалі? Дякую.
[Captain] 
Попереджень: 1
Попереджень: 1 


З нами з: 18.02.12
Востаннє: 03.12.16
Повідомлень: 1360

2016-11-07 01:11  
На amc по понеділках, отже...
krigg070 
Відео Гуртом - фільмокрай
Відео Гуртом - фільмокрай


З нами з: 29.10.14
Востаннє: 02.12.16
Повідомлень: 346

2016-11-07 18:38  
+ 3 серія
krigg070 
Відео Гуртом - фільмокрай
Відео Гуртом - фільмокрай


З нами з: 29.10.14
Востаннє: 02.12.16
Повідомлень: 346

2016-11-08 20:00  
+ 4 серія
krigg070 
Відео Гуртом - фільмокрай
Відео Гуртом - фільмокрай


З нами з: 29.10.14
Востаннє: 02.12.16
Повідомлень: 346

2016-11-16 20:56  
+ 5 серія
krigg070 
Відео Гуртом - фільмокрай
Відео Гуртом - фільмокрай


З нами з: 29.10.14
Востаннє: 02.12.16
Повідомлень: 346

2016-11-23 20:15  
+ 6 серія
krigg070 
Відео Гуртом - фільмокрай
Відео Гуртом - фільмокрай


З нами з: 29.10.14
Востаннє: 02.12.16
Повідомлень: 346

2016-12-01 23:28  
+ 7 серія
Ваш часовий пояс: GMT + 2 Години

Нова тема   Відповісти