Завантажити та скачати торренти українською


Що може бути гірше? / What's the Worst That Could Happen? (2001) Ukr/Eng | Sub Eng

Нові коментарі

Нова тема   Відповісти
Автор Повідомлення
Anonymous 







2016-10-16 17:57  
Що може бути гірше? / What's the Worst That Could Happen? (2001) Ukr/Eng | Sub Eng

Що може бути гірше? / What's the Worst That Could Happen? (2001) Ukr/Eng | Sub Eng

Оригінальна обкладинка



Жанр: комедія, кримінальний
Країна: США



Кінокомпанія: Metro-Goldwyn-Mayer (MGM), Turman/Morrissey Company, Hyde Park Entertainment
Режисер: Сем Вайсмен / Sam Weisman
Актори: Мартін Лоуренс / Martin Lawrence, Денні ДеВіто / Danny DeVito, Джон Леґуізамо / John Leguizamo, Ґлен Гедлі / Glenne Headly, Кармен Еджого / Carmen Ejogo, Берні Мак / Bernie Mac, Ларрі Міллер / Larry Miller, Вільям Фіхтнер / William Fichtner, Нора Данн / Nora Dunn, Річард Шіфф / Richard Schiff, Ана Ґастеєр / Ana Gasteyer та інші

Сюжет:
Кевін Кеффрі, веселий злодюжка, пробирається до будинку мільйонера Макса Фейрбенкса, щоб розживитися чимось цінним. Та його ловлять на гарячому і в присутності поліції Макс забирає у Кевіна каблучку, подарунок коханої дівчини, начебто вона належить йому, а Кевін її вкрав. Але Кевін, хлопчина метикуватий, і зумів втекти з рук поліції, та помститися негіднику Максу, все-таки вкравши в того чимало коштовностей та дороге авто. Але як же бути з каблучкою? Кевін не може залишити все як є, і намагається повернути подарунок коханої...


Тривалість: 01:38:28
Якість:
Відео:
кодек:
розмір кадру: 704 х 384
бітрейт: 2063 Кбіт/с

Аудіо # 1:
мова: українська
переклад: багатоголосий закадровий | Так Треба Продакшн на замовлення "Інтер"
ролі озвучили: Мартін Лоуренс — Володимир Терещук, Дені ДеВіто — Анатолій Зіновенко, Наталя Поліщук? і ще один жіночий голос
кодек: 2.0
бітрейт: 192 Кбіт/с
примітка:
Arsenfpu написано:
по "Новому" було це саме озвучення


Аудіо # 2:
мова: англійська
переклад: оригінал
кодек: 5.1
бітрейт: 448 Кбіт/с

Субтитри:
мова: англійська (SDH) - завантажити окремо
тип: програмні (м'які)
формат: *.srt
MediaInfo
Код:
General
Complete name               : What's the Worst That Could Happen (2001) [Ukr,Eng] [Hurtom].avi
Format                      : AVI
Format/Info                 : Audio Video Interleave
File size                   : 1.87 GiB
Duration                    : 1 h 38 min
Overall bit rate            : 2 717 kb/s
Movie name                  : Що може бути гірше? / What's the Worst That Could Happen? (2001)
Director                    : yaroslaigor & igor911
Genre                       : комедія, криминальний
Writing application         : VirtualDubModUkr 1.5.10.2 (build 2542/release)
Writing library             : VirtualDubMod build 2542/release
Copyright                   : HQCLUB & HURTOM.COM
Comment                     : https://toloka.to/t76747

Video
ID                          : 0
Format                      : MPEG-4 Visual
Format profile              : Advanced [email protected]
Format settings, BVOP       : 1
Format settings, QPel       : No
Format settings, GMC        : No warppoints
Format settings, Matrix     : Custom
Codec ID                    :
Codec ID/Hint               :
Duration                    : 1 h 38 min
Bit rate                    : 2 063 kb/s
Width                       : 704 pixels
Height                      : 384 pixels
Display aspect ratio        : 1.85:1
Frame rate                  : 23.976 (24000/1001) FPS
Color space                 : YUV
Chroma subsampling          : 4:2:0
Bit depth                   : 8 bits
Scan type                   : Progressive
Compression mode            : Lossy
Bits/(Pixel*Frame)          : 0.318
Stream size                 : 1.42 GiB (76%)
Writing library             : 65

Audio #1
ID                          : 1
Format                      : AC-3
Format/Info                 : Audio Coding 3
Mode extension              : CM (complete main)
Format settings, Endianness : Big
Codec ID                    : 2000
Duration                    : 1 h 38 min
Bit rate mode               : Constant
Bit rate                    : 192 kb/s
Channel(s)                  : 2 channels
Channel positions           : Front: L R
Sampling rate               : 48.0 kHz
Frame rate                  : 31.250 FPS (1536 spf)
Compression mode            : Lossy
Stream size                 : 135 MiB (7%)
Alignment                   : Split accross interleaves
Interleave, duration        : 42  ms (1.00 video frame)
Interleave, preload duratio : 500  ms
Title                       : UKR MVO [TakTrebaProduction]

Audio #2
ID                          : 2
Format                      : AC-3
Format/Info                 : Audio Coding 3
Mode extension              : CM (complete main)
Format settings, Endianness : Big
Codec ID                    : 2000
Duration                    : 1 h 38 min
Bit rate mode               : Constant
Bit rate                    : 448 kb/s
Channel(s)                  : 6 channels
Channel positions           : Front: L C R, Side: L R, LFE
Sampling rate               : 48.0 kHz
Frame rate                  : 31.250 FPS (1536 spf)
Compression mode            : Lossy
Stream size                 : 316 MiB (16%)
Alignment                   : Split accross interleaves
Interleave, duration        : 42  ms (1.00 video frame)
Interleave, preload duratio : 500  ms
Title                       : ENG Original


Джерело: & &
Українська доріжка - Givi - зведення, dvorsky - запис з ТБ; українізований постер - d1mma; фільмографії акторів та інформація про озвучення - Віктор

ЗАЛИШАЙТЕСЬ ЯКОМОГА ДОВШЕ НА РОЗДАЧІ!
СКАЧАВ САМ - ДАЙ СКАЧАТИ ІНШИМ


Срібний реліз (на рейтинг впливає 50% завантаженого)
 Трекер:    Зареєстрований   

Завантажити / скачати фільм українською



відео для новачків



 Зареєстрований:   2016-10-16 18:06
 Розмір:   1.87 GB 
 Оцінка фільму:   3.6/10 (Голосів: 14)
   
Anonymous 







2016-10-16 19:39  
720p
Ваш часовий пояс: GMT + 2 Години

Нова тема   Відповісти