Завантажити та скачати торренти українською


Що може бути гірше? / What's the Worst That Could Happen? (2001) 720p Ukr/Eng | Sub Eng

Нові коментарі

Нова тема   Відповісти
Автор Повідомлення
Anonymous 







2016-10-16 16:05  
Що може бути гірше? / What's the Worst That Could Happen? (2001) 720p Ukr/Eng | Sub Eng

Що може бути гірше? / What's the Worst That Could Happen? (2001) 720p Ukr/Eng | Sub Eng

Оригінальна обкладинка



Жанр: комедія, кримінальний
Країна: США



Кінокомпанія: Metro-Goldwyn-Mayer (MGM), Turman/Morrissey Company, Hyde Park Entertainment
Режисер: Сем Вайсмен / Sam Weisman
Актори: Мартін Лоуренс / Martin Lawrence, Денні ДеВіто / Danny DeVito, Джон Леґуізамо / John Leguizamo, Ґлен Гедлі / Glenne Headly, Кармен Еджого / Carmen Ejogo, Берні Мак / Bernie Mac, Ларрі Міллер / Larry Miller, Вільям Фіхтнер / William Fichtner, Нора Данн / Nora Dunn, Річард Шіфф / Richard Schiff, Ана Ґастеєр / Ana Gasteyer та інші

Сюжет:
Кевін Кеффрі, веселий злодюжка, пробирається до будинку мільйонера Макса Фейрбенкса, щоб розживитися чимось цінним. Та його ловлять на гарячому і в присутності поліції Макс забирає у Кевіна каблучку, подарунок коханої дівчини, начебто вона належить йому, а Кевін її вкрав. Але Кевін, хлопчина метикуватий, і зумів втекти з рук поліції, та помститися негіднику Максу, все-таки вкравши в того чимало коштовностей та дороге авто. Але як же бути з каблучкою? Кевін не може залишити все як є, і намагається повернути подарунок коханої...


Тривалість: 01:38:28
Якість: 720p
Відео:
кодек:
розмір кадру: 1280 х 694
бітрейт: 6203 Кбіт/с [crf=17]

Аудіо # 1:
мова: українська
переклад: багатоголосий закадровий | Так Треба Продакшн на замовлення "Інтер"
ролі озвучили: Мартін Лоуренс — Володимир Терещук, Дені ДеВіто — Анатолій Зіновенко, Наталя Поліщук? і ще один жіночий голос
кодек: 2.0
бітрейт: 192 Кбіт/с
примітка:
Arsenfpu написано:
по "Новому" було це саме озвучення


Аудіо # 2:
мова: англійська
переклад: оригінал
кодек: 5.1
бітрейт: 640 Кбіт/с

Субтитри:
мова: англійська
тип: програмні (м'які)
формат: *.srt

Збережено оригінальні розділи, як на Blu-ray.
MediaInfo
Код:
Complete name               : What's the Worst That Could Happen (2001) [Ukr,Eng sub.Eng] 720p [Hurtom].mkv
Format                      : Matroska
Format version              : Version 4 / Version 2
File size                   : 4.84 GiB
Duration                    : 1 h 38 min
Overall bit rate            : 7 037 kb/s
Movie name                  : Що може бути гірше? / What's the Worst That Could Happen? (2001) [Ukr,Eng sub.Eng] 720p [Hurtom] by igor911
Released date               : 2001
Cover                       : Yes
Comment                     : http://www.imdb.com/title/tt0161083/
Attachments                 : cover.jpg
ARTIST                      : Мартін Лоуренс / Martin Lawrence, Денні ДеВіто / Danny DeVito, Джон Леґуізамо / John Leguizamo, Ґлен Гедлі / Glenne Headly, Кармен Еджого / Carmen Ejogo, Берні Мак / Bernie Mac, Ларрі Міллер / Larry Miller, Вільям Фіхтнер / William Fichtner, Нора Данн / Nora Dunn, Річард Шіфф / Richard Schiff, Ана Ґастеєр / Ana Gasteyer та інші
DIRECTOR                    : Сем Вайсмен / Sam Weisman
GENRE                       : комедія, кримінальний
SYNOPSIS                    : Кевін Кеффрі, веселий злодюжка, пробирається до будинку мільйонера Макса Фейрбенкса, щоб розживитися чимось цінним. Та його ловлять на гарячому і в присутності поліції Макс забирає у Кевіна каблучку, подарунок коханої дівчини, начебто вона належить йому, а Кевін її вкрав. Але Кевін, хлопчина метикуватий, і зумів втекти з рук поліції, та помститися негіднику Максу, все-таки вкравши в того чимало коштовностей та дороге авто. Але як же бути з каблучкою? Кевін не може залишити все як є, і намагається повернути подарунок коханої...
Url                         : https://toloka.to/t76744

Video
ID                          : 1
Format                      : AVC
Format/Info                 : Advanced Video Codec
Format profile              : [email protected]
Format settings, CABAC      : Yes
Format settings, ReFrames   : 9 frames
Codec ID                    : V_MPEG4/ISO/AVC
Duration                    : 1 h 38 min
Bit rate                    : 6 203 kb/s
Width                       : 1 280 pixels
Height                      : 694 pixels
Display aspect ratio        : 1.85:1
Frame rate mode             : Constant
Frame rate                  : 23.976 (24000/1001) FPS
Color space                 : YUV
Chroma subsampling          : 4:2:0
Bit depth                   : 8 bits
Scan type                   : Progressive
Bits/(Pixel*Frame)          : 0.291
Stream size                 : 4.27 GiB (88%)
Title                       : Що може бути гірше? / What's the Worst That Could Happen? (2001) 720p [rutracker]
Writing library             : core 148 r2665 a01e339
Encoding settings           : cabac=1 / ref=9 / deblock=1:-3:-3 / analyse=0x3:0x133 / me=umh / subme=10 / psy=1 / psy_rd=1.00:0.00 / mixed_ref=1 / me_range=32 / chroma_me=1 / trellis=2 / 8x8dct=1 / cqm=0 / deadzone=21,11 / fast_pskip=0 / chroma_qp_offset=-2 / threads=6 / lookahead_threads=1 / sliced_threads=0 / nr=0 / decimate=1 / interlaced=0 / bluray_compat=0 / constrained_intra=0 / bframes=9 / b_pyramid=2 / b_adapt=2 / b_bias=0 / direct=1 / weightb=1 / open_gop=0 / weightp=2 / keyint=240 / keyint_min=23 / scenecut=40 / intra_refresh=0 / rc_lookahead=60 / rc=crf / mbtree=0 / crf=17.0 / qcomp=0.60 / qpmin=0 / qpmax=69 / qpstep=4 / vbv_maxrate=50000 / vbv_bufsize=62500 / crf_max=0.0 / nal_hrd=none / filler=0 / ip_ratio=1.40 / pb_ratio=1.30 / aq=2:0.80
Language                    : English
Default                     : Yes
Forced                      : No

Audio #1
ID                          : 2
Format                      : AC-3
Format/Info                 : Audio Coding 3
Mode extension              : CM (complete main)
Format settings, Endianness : Big
Codec ID                    : A_AC3
Duration                    : 1 h 38 min
Bit rate mode               : Constant
Bit rate                    : 192 kb/s
Channel(s)                  : 2 channels
Channel positions           : Front: L R
Sampling rate               : 48.0 kHz
Frame rate                  : 31.250 FPS (1536 spf)
Compression mode            : Lossy
Stream size                 : 135 MiB (3%)
Title                       : MVO [TakTrebaProduction] 2.0 192 Kbps [Hurtom-Givi,dvorsky]
Language                    : Ukrainian
Default                     : Yes
Forced                      : No

Audio #2
ID                          : 3
Format                      : AC-3
Format/Info                 : Audio Coding 3
Mode extension              : CM (complete main)
Format settings, Endianness : Big
Codec ID                    : A_AC3
Duration                    : 1 h 38 min
Bit rate mode               : Constant
Bit rate                    : 640 kb/s
Channel(s)                  : 6 channels
Channel positions           : Front: L C R, Side: L R, LFE
Sampling rate               : 48.0 kHz
Frame rate                  : 31.250 FPS (1536 spf)
Compression mode            : Lossy
Stream size                 : 451 MiB (9%)
Title                       : Original, 5.1 640 Kbps
Language                    : English
Default                     : No
Forced                      : No

Text
ID                          : 4
Format                      : UTF-8
Codec ID                    : S_TEXT/UTF8
Codec ID/Info               : UTF-8 Plain Text
Duration                    : 1 h 31 min
Bit rate                    : 89 b/s
Count of elements           : 1772
Stream size                 : 60.6 KiB (0%)
Language                    : English
Default                     : No
Forced                      : No

Menu
00:00:00.000                : en:Chapter 01
00:00:10.927                : en:Chapter 02
00:11:27.603                : en:Chapter 03
00:22:00.318                : en:Chapter 04
00:33:37.765                : en:Chapter 05
00:45:49.329                : en:Chapter 06
00:58:21.247                : en:Chapter 07
01:11:24.154                : en:Chapter 08
01:23:58.116                : en:Chapter 09
01:38:38.912                : en:


Джерело: &
Українська доріжка - Givi - зведення, dvorsky - запис з ТБ; українізований постер - d1mma; фільмографії акторів та інформація про озвучення - Віктор

ЗАЛИШАЙТЕСЬ ЯКОМОГА ДОВШЕ НА РОЗДАЧІ!
СКАЧАВ САМ - ДАЙ СКАЧАТИ ІНШИМ


Срібний реліз (на рейтинг впливає 50% завантаженого)
 Трекер:    Зареєстрований   

Завантажити / скачати фільм українською



відео для новачків



 Зареєстрований:   2016-10-16 16:52
 Розмір:   4.84 GB 
 Оцінка фільму:   3.1/10 (Голосів: 13)
   
Anonymous 







2016-10-16 18:16  
avi
Ваш часовий пояс: GMT + 2 Години

Нова тема   Відповісти