Завантажити та скачати торренти українською


Зупинись і гори (Сезон 3, Серія 1-7) / Halt and Catch Fire (Season 3, Episode 1-7) (2016) 720p Ukr/Eng | Sub Eng

Нові коментарі

Нова тема   Відповісти
Автор Повідомлення
krigg070 
Відео Гуртом - фільмокрай
Відео Гуртом - фільмокрай


З нами з: 29.10.14
Востаннє: 04.12.16
Повідомлень: 347

2016-10-16 15:10  
Зупинись і гори (Сезон 3, Серія 1-7) / Halt and Catch Fire (Season 3, Episode 1-7) (2016) 720p Ukr/Eng | Sub Eng

Зупинись і гори (Сезон 3, Серія 1-7) / Halt and Catch Fire (Season 3, Episode 1-7) (2016) 720p Ukr/Eng | Sub Eng


Жанр: драма
Країна: США



Кінокомпанія: AMC Studios
Творці серіалу: Крістофер Кентвелл, Крістофер Роджерс
Актори: Лі Пейс, Скут МакНейрі, Макензі Дейвіс, Кері Біше, Тобі Гас та інші

Сюжет:
Дія серіалу відбувається у вісімдесяті. Він розповідає про бум персональних комп’ютерів з погляду трьох персонажів – новатора, інженера і вундеркінда, чиї інновації кидають виклик тогочасним корпоративним велетням. Їхні особисті та професійні стосунки переживуть випробування жадобою та амбіціями і сформують нову культуру техаської Кремнієвої прерії.

Перелік серій
    Halt and Catch Fire. Season 3, Episode 01. Valley of the Heart's Delight
    Halt and Catch Fire. Season 3, Episode 02. One Way or Another
    Halt and Catch Fire. Season 3, Episode 03. Flipping the Switch
    Halt and Catch Fire. Season 3, Episode 04. Rules of Honorable Play
    Halt and Catch Fire. Season 3, Episode 05. Yerba Buena
    Halt and Catch Fire. Season 3, Episode 06. And She Was
    Halt and Catch Fire. Season 3, Episode 07. The Threshold
Тривалість: 1 серія: ~45:00 (цілком серій: 10)
Якість: 720p
Відео:
кодек:
розмір кадру: 1280 х 718
бітрейт: ~4000 кб/с

Аудіо#1:
мова: українська
переклад: багатоголосий закадровий
кодек: 2.0
бітрейт: 128 кб/с

Аудіо#2:
мова: англійська
переклад: оригінал
кодек: 5.1
бітрейт: 384 кб/с

Субтитри:
мова: англійська
тип: програмні (м'які)
формат: *.srt

Скріншоти
MediaInfo
Код:
Video
ID                             : 1
Format                         : AVC
Format/Info                    : Advanced Video Codec
Format profile                 : [email protected]
Format settings, CABAC         : No
Format settings, ReFrames      : 2 frames
Codec ID                       : V_MPEG4/ISO/AVC
Duration                       : 43mn 56s
Bit rate                       : 4 108 Kbps
Width                          : 1 280 pixels
Height                         : 718 pixels
Display aspect ratio           : 16:9
Frame rate mode                : Constant
Frame rate                     : 23.976 (24000/1001) fps
Color space                    : YUV
Chroma subsampling             : 4:2:0
Bit depth                      : 8 bits
Scan type                      : Progressive
Bits/(Pixel*Frame)             : 0.186
Stream size                    : 1.26 GiB (89%)
Language                       : English
Default                        : Yes
Forced                         : No
Color range                    : Limited
Color primaries                : BT.709
Transfer characteristics       : BT.709
Matrix coefficients            : BT.709

Audio #1
ID                             : 2
Format                         : AC-3
Format/Info                    : Audio Coding 3
Mode extension                 : CM (complete main)
Format settings, Endianness    : Big
Codec ID                       : A_AC3
Duration                       : 43mn 56s
Bit rate mode                  : Constant
Bit rate                       : 128 Kbps
Channel(s)                     : 2 channels
Channel positions              : Front: L R
Sampling rate                  : 48.0 KHz
Frame rate                     : 31.250 fps (1536 spf)
Compression mode               : Lossy
Stream size                    : 40.2 MiB (3%)
Title                          : 2.0 @ 128 kbps - AMC
Language                       : Ukrainian
Default                        : Yes
Forced                         : No

Audio #2
ID                             : 3
Format                         : AC-3
Format/Info                    : Audio Coding 3
Mode extension                 : CM (complete main)
Format settings, Endianness    : Big
Codec ID                       : A_AC3
Duration                       : 43mn 56s
Bit rate mode                  : Constant
Bit rate                       : 384 Kbps
Channel(s)                     : 6 channels
Channel positions              : Front: L C R, Side: L R, LFE
Sampling rate                  : 48.0 KHz
Frame rate                     : 31.250 fps (1536 spf)
Compression mode               : Lossy
Stream size                    : 121 MiB (8%)
Title                          : 5.1 @ 384 kbps - Original
Language                       : English
Default                        : No
Forced                         : No

Text
ID                             : 4
Format                         : UTF-8
Codec ID                       : S_TEXT/UTF8
Codec ID/Info                  : UTF-8 Plain Text
Duration                       : 43mn 24s
Bit rate                       : 92 bps
Count of elements              : 829
Stream size                    : 29.4 KiB (0%)
Title                          : Full
Language                       : English
Default                        : No
Forced                         : No


Джерела та подяки:



Бронзовий реліз (на рейтинг впливає 75% завантаженого)
 Трекер:    Зареєстрований   

Завантажити / скачати серіал українською



відео для новачків



 Зареєстрований:   2016-12-01 23:35
 Розмір:   9.93 GB 
 Оцінка серіалу:   9.8/10 (Голосів: 12)
   
Nikson 
VIP


З нами з: 12.01.10
Востаннє: 04.12.16
Повідомлень: 654

2016-10-16 15:25  
Цікавий сезон, особливо варто відзначити дві останні серії.
Серіал до речі продовжили на 4 останній сезон.
Не думав що найближчим часом буде українською, тому дивився англійською з субтитрами Happy

Patriot_ukr 
VIP


З нами з: 06.04.15
Востаннє: 04.12.16
Повідомлень: 480

2016-10-16 16:01  
Буде відразу цілий сезон, чи по серіям?
[Captain] 
Попереджень: 1
Попереджень: 1 


З нами з: 18.02.12
Востаннє: 04.12.16
Повідомлень: 1374

2016-10-16 17:34  
Patriot_ukr
по серіяХ.

Додано через 1 годину 3 хвилини 28 секунд:

Один із найкращих серіалів сьогодення, от тільки кількість глядачів дуже мала — я дивуюся, що так довго протримався серіал. Просто зараз люди люблять простіші серіали, типу "Пуститися берега", "Ходячі мерці" тощо, у яких немає майже нічого, окрім красивої оболонки.

_sergius 
Свій


З нами з: 26.03.11
Востаннє: 29.11.16
Повідомлень: 66

2016-10-16 18:42  
Коли приблизно можна очікувати?
K2 
Поважний учасник


З нами з: 02.11.08
Востаннє: 04.12.16
Повідомлень: 158

2016-10-16 19:10  
Фінал 8го епізоду до мурашок!
Paul Haslinger створив ідеальний музичний супровід.
Nikson
Радий чути, що буде продовження, бо особисто здалось, що це кінець.

[Captain] 
Попереджень: 1
Попереджень: 1 


З нами з: 18.02.12
Востаннє: 04.12.16
Повідомлень: 1374

2016-10-16 20:02  
K2
та як це може бути кінцем? сюжетні лінії персонажів не завершені, окрім Боса. та й у нього може не все так легко.
до речі, саундтрек нещодавно вийшов.

Додано через 40 секунд:

_sergius
завтра на ТБ перша серія

irusiaaa 
Свій


З нами з: 02.01.13
Востаннє: 04.12.16
Повідомлень: 67

2016-10-17 08:46  
Дуже подобається серіал.
З нетерпінням чекаю 3-го сезону українською!

bot 
робот


З нами з: 30.09.07
Востаннє: 26.05.05
Повідомлень: 15986

2016-10-17 22:38  
Тему перенесено з Анонси релізів до форуму Серіали в HD


krigg070

Hanway 
Відео Гуртом - запис з ТБ
Відео Гуртом - запис з ТБ


З нами з: 20.05.11
Востаннє: 04.12.16
Повідомлень: 461

2016-10-19 20:22  
Як завжди нездара Терещук зіпсував озвучення своїм занудством Sad (1)
Принаймні інші голоси нормальні.
Звісно й близько не стоїть з озвученням Студії Гуртом.

fl_fl 
Відео Гуртом - фільмокрай
Відео Гуртом - фільмокрай


З нами з: 26.05.09
Востаннє: 03.12.16
Повідомлень: 3046

2016-10-19 21:36  
Озвучили: Роман Чорний, Марина Локтіонова, Володимир Терещук, Анна Соболєва
luke_11 
Свій


З нами з: 22.01.12
Востаннє: 04.12.16
Повідомлень: 55

2016-10-24 23:50  
Попередні сезони були круті, і їх дубляж в тому числі. Надіюся цей нічим не гірший. А українських субтитрів до нього немає?
Patriot_ukr 
VIP


З нами з: 06.04.15
Востаннє: 04.12.16
Повідомлень: 480

2016-10-25 15:37  
luke_11
Був не дубляж, а закадрове озвучення. Озвучення тут інше, не від студії Гуртом, а від ТТП.

krigg070 
Відео Гуртом - фільмокрай
Відео Гуртом - фільмокрай


З нами з: 29.10.14
Востаннє: 04.12.16
Повідомлень: 347

2016-11-07 18:43  
+ 3 серія
krigg070 
Відео Гуртом - фільмокрай
Відео Гуртом - фільмокрай


З нами з: 29.10.14
Востаннє: 04.12.16
Повідомлень: 347

2016-11-08 20:12  
+ 4 серія
krigg070 
Відео Гуртом - фільмокрай
Відео Гуртом - фільмокрай


З нами з: 29.10.14
Востаннє: 04.12.16
Повідомлень: 347

2016-11-16 21:04  
+ 5 серія
krigg070 
Відео Гуртом - фільмокрай
Відео Гуртом - фільмокрай


З нами з: 29.10.14
Востаннє: 04.12.16
Повідомлень: 347

2016-11-23 20:22  
+ 6 серія
krigg070 
Відео Гуртом - фільмокрай
Відео Гуртом - фільмокрай


З нами з: 29.10.14
Востаннє: 04.12.16
Повідомлень: 347

2016-12-01 23:36  
+ 7 серія
dniprodd 
Попереджень: 1
Попереджень: 1 


З нами з: 31.10.09
Востаннє: 04.12.16
Повідомлень: 182

2016-12-02 12:09  
це не дуже чемно. оновити торент і звалити з роздачі.
Ваш часовий пояс: GMT + 2 Години

Нова тема   Відповісти