Завантажити та скачати торренти українською


Katie Melua - In Winter (2016) [FLAC] | Blues / Vocal Jazz

Нові коментарі

Нова тема   Відповісти
Автор Повідомлення
kolpavel 
VIP


З нами з: 04.05.14
Востаннє: 04.12.16
Повідомлень: 1060

2016-10-16 12:32  
Katie Melua - In Winter (2016) [FLAC] | Blues / Vocal Jazz

Katie Melua - In Winter (2016) [FLAC] | Blues / Vocal Jazz


Стиль: Blues Vocal Jazz
Країна, місто: Грузія, Кутаїсі
Сайти: Офіційний сайт
Видавець: BMG Rights Management (UK) Ltd.
Виконавці:
Katie Melua - вокал, акустичні гітари
Joel Harries - ударні, перкусія, акустичні гітари
Tim Harries - контрабас
Neil Cowley - фортепіано
Жіночий хор мiста Горі
Пісні:
    01. The Little Swallow - 01:47
    02. River - 03:26
    03. Perfect World - 04:25
    04. Cradle Song - 01:44
    05. A Time to Buy - 03:32
    06. Plane Song - 04:08
    07. If You Are so Beautiful - 03:44
    08. Dreams on Fire - 04:06
    09. All-Night Vigil - Nunc Dimittis - 04:16
    10. O Holy Night - 04:24

Тривалість: 00:35:27
Мова: українська (1), англiйська (2-10)
Аудіо-кодек: FLAC
Бітрейт: 1374-1547 кб/с
Джерело: трекер
Додаткова інформація:
динамічний діапазон
foobar2000 1.3.12 / Dynamic Range Meter 1.1.1
log date: 2016-10-14 17:56:33

--------------------------------------------------------------------------------
Analyzed: Katie Melua / In Winter
--------------------------------------------------------------------------------

DR Peak RMS Duration Track
--------------------------------------------------------------------------------
DR12 -0.20 dB -15.82 dB 1:47 01-The Little Swallow
DR11 -0.16 dB -15.23 dB 3:26 02-River
DR9 -0.20 dB -13.23 dB 4:25 03-Perfect World
DR12 -0.27 dB -16.12 dB 1:44 04-Cradle Song
DR11 -0.20 dB -14.02 dB 3:32 05-A Time to Buy
DR11 -0.16 dB -14.39 dB 4:08 06-Plane Song
DR10 -2.32 dB -15.29 dB 3:44 07-If You Are so Beautiful
DR10 -0.20 dB -13.95 dB 4:06 08-Dreams on Fire
DR8 -2.22 dB -14.84 dB 4:16 09-All-Night Vigil - Nunc Dimittis
DR11 -0.16 dB -15.19 dB 4:24 10-O Holy Night
--------------------------------------------------------------------------------

Number of tracks: 10
Official DR value: DR11

Samplerate: 48000 Hz
Channels: 2
Bits per sample: 24
Bitrate: 1399 kbps
Codec: FLAC
================================================================================
спектри частот
Katie Melua - In Winter (2016) [FLAC] | Blues / Vocal Jazz
Katie Melua - In Winter (2016) [FLAC] | Blues / Vocal Jazz
Katie Melua - In Winter (2016) [FLAC] | Blues / Vocal Jazz
Katie Melua - In Winter (2016) [FLAC] | Blues / Vocal Jazz


Якщо Ви справді бажаєте підтримати українське - після прослуховування, якщо музика вам сподобалась, придбайте ліцензійний диск. Підтримаймо вітчизняних виконавців!


Срібний реліз (на рейтинг впливає 50% завантаженого)
 Трекер:    Зареєстрований   

Завантажити / скачати українську музику



відео для новачків



 Зареєстрований:   2016-10-16 12:32
 Розмір:   383 MB 
 Оцінка музики:   10/10 (Голосів: 2)
   
kolpavel 
VIP


З нами з: 04.05.14
Востаннє: 04.12.16
Повідомлень: 1060

2016-10-16 16:31  

Ваш часовий пояс: GMT + 2 Години

Нова тема   Відповісти