Завантажити та скачати торренти українською


Великі канікули (The Exchange Student) / Les Grandes Vacances (1967) Ukr/Fre | Sub Eng/Ger

Нові коментарі

Нова тема   Відповісти
Автор Повідомлення
Anonymous 







2016-10-16 12:25  
Великі канікули / Les Grandes Vacances / The Exchange Student (1967) Ukr/Fre | Sub Eng/Ger



Жанр: комедія
Країна: Франція, Італія



Кінокомпанія: Les Films Copernic, Ascot, Cineraid
Режисер: Жан Жиро / Jean Girault
Актори: Луї де Фюнес / Louis de Funes, Франсуа Лечче / François Leccia, Олів'є де Фюнес / Olivier De Funès, Ферді Майн / Ferdy Mayne, Клод Жансак / Claude Gensac, Гі Гроссо / Guy Grosso, Моріс Ріш / Maurice Risch, Мартіна Келлі / Martine Kelly, Маріо Давід / Mario David, Жак Динам / Jacques Dynam, Домінік Даврей / Dominique Davray, Макс Монтаван / Max Montavon та інші

Сюжет:
У амбіційного директора школи Шарля Боско - два сина. Старший, Філліп - відмінний компанійський хлопець, тільки трошки двієчник. І молодший Жерар - татковий синок - стукач, лицемір і підлиза. У канікули за задумом тата старший повинен відправитися у нудну поїздку до Лондона - вчити англійську мову, а молодший - скласти компанію юній англійці у Франції. Філліп з друзями відправляється в подорож на яхті по Сені, а замість себе делегує в Лондон однокласника Стефана Мішона. Юна леді Мак Фаррелл замість огляду музейних пам'яток Парижа віддає перевагу компанії школярів-моряків. Ситуація з педагогічно правильним відпочинком виходить з-під контролю пильних батьків.


Тривалість: 01:29:56
Якість:
Відео:
кодек:
розмір кадру: 720 х 304
бітрейт: 1913 Кбіт/с

Аудіо # 1:
мова: українська
переклад: двоголосий закадровий | 1+1
ролі озвучили: Андрій Твердак і Лідія Муращенко
кодек: 2.0
бітрейт: 192 Кбіт/с

Аудіо # 2:
мова: французька
переклад: оригінал
кодек: 2.0
бітрейт: 192 Кбіт/с

Субтитри #1-3: (завантажити окремо)
мова: французька (форсовані), англійська, німецька
тип: програмні (м'які)
формат: *.srt
MediaInfo
Код:
General
Complete name               : Les Grandes Vacances (1967) [Ukr,Fre] [Hurtom].avi
Format                      : AVI
Format/Info                 : Audio Video Interleave
File size                   : 1.45 GiB
Duration                    : 1 h 29 min
Overall bit rate            : 2 311 kb/s
Movie name                  : Великі канікули / Les Grandes Vacances / The Exchange Student (1967)
Director                    : yaroslaigor & igor911
Genre                       : комедія
Writing application         : VirtualDubModUkr 1.5.10.2 (build 2542/release)
Writing library             : VirtualDubMod build 2542/release
Copyright                   : HQCLUB & Hurtom.com
Comment                     : https://toloka.to/t76736

Video
ID                          : 0
Format                      : MPEG-4 Visual
Format profile              : Advanced [email protected]
Format settings, BVOP       : 1
Format settings, QPel       : No
Format settings, GMC        : No warppoints
Format settings, Matrix     : Custom
Codec ID                    :
Codec ID/Hint               :
Duration                    : 1 h 29 min
Bit rate                    : 1 913 kb/s
Width                       : 720 pixels
Height                      : 304 pixels
Display aspect ratio        : 2.35:1
Frame rate                  : 24.000 FPS
Color space                 : YUV
Chroma subsampling          : 4:2:0
Bit depth                   : 8 bits
Scan type                   : Progressive
Compression mode            : Lossy
Bits/(Pixel*Frame)          : 0.364
Stream size                 : 1.20 GiB (83%)
Writing library             : 65

Audio #1
ID                          : 1
Format                      : AC-3
Format/Info                 : Audio Coding 3
Mode extension              : CM (complete main)
Format settings, Endianness : Big
Codec ID                    : 2000
Duration                    : 1 h 29 min
Bit rate mode               : Constant
Bit rate                    : 192 kb/s
Channel(s)                  : 2 channels
Channel positions           : Front: L R
Sampling rate               : 48.0 kHz
Frame rate                  : 31.250 FPS (1536 spf)
Compression mode            : Lossy
Stream size                 : 124 MiB (8%)
Alignment                   : Split accross interleaves
Interleave, duration        : 42  ms (1.00 video frame)
Interleave, preload duratio : 500  ms
Title                       : UKR DVO [1+1] 2.0 192 Kbps [Hurtom-RB26DETT,Romario_O]

Audio #2
ID                          : 2
Format                      : AC-3
Format/Info                 : Audio Coding 3
Mode extension              : CM (complete main)
Format settings, Endianness : Big
Codec ID                    : 2000
Duration                    : 1 h 29 min
Bit rate mode               : Constant
Bit rate                    : 192 kb/s
Channel(s)                  : 2 channels
Channel positions           : Front: L R
Sampling rate               : 48.0 kHz
Frame rate                  : 31.250 FPS (1536 spf)
Compression mode            : Lossy
Stream size                 : 124 MiB (8%)
Alignment                   : Split accross interleaves
Interleave, duration        : 42  ms (1.00 video frame)
Interleave, preload duratio : 500  ms
Title                       : FRE (Original) 2.0 192 Kbps


Джерело: & &
Українська доріжка: RB26DETT (зведення), Romario_O (запис з ТБ); постер: Тиріку

ЗАЛИШАЙТЕСЬ ЯКОМОГА ДОВШЕ НА РОЗДАЧІ!
СКАЧАВ САМ - ДАЙ СКАЧАТИ ІНШИМ


Срібний реліз (на рейтинг впливає 50% завантаженого)
 Трекер:    Зареєстрований   

Завантажити / скачати фільм українською



відео для новачків



 Зареєстрований:   2016-10-16 13:14
 Розмір:   1.45 GB 
 Оцінка фільму:   5.4/10 (Голосів: 21)
   
eXteSy- 
VIP


З нами з: 06.04.09
Востаннє: 09.12.16
Повідомлень: 1455

2016-11-16 22:52  
Класна розважальна комедія! Думав, що бачив уже всі кольорові фільми з Луї де Фюнесом, однак саме це якимось чином зумів пропустити. Тим приємнішою була несподіванка. А загалом тут можна знайти всі складові кращих фільмів за його участю: комедію ситуацій, гіперболізоване зображення окремих рис характеру, неповторна міміка геніального актора та легкий сюжет для відпочинку.
9/10

А от з опису варту забрати останні три речення, так як вони розкривають майже кінцівку фільма.

Ваш часовий пояс: GMT + 2 Години

Нова тема   Відповісти