Завантажити та скачати торренти українською


Hoggwash - Spellbound (2013) [FLAC] | Symphonic Prog / Progressive Rock

Нові коментарі

Нова тема   Відповісти
Автор Повідомлення
kolpavel 
VIP


З нами з: 04.05.14
Востаннє: 07.12.16
Повідомлень: 1059

2016-10-15 20:49  
Hoggwash - Spellbound (2013) [FLAC] | Symphonic Prog / Progressive Rock

Hoggwash - Spellbound (2013) [FLAC] | Symphonic Prog / Progressive Rock


Стиль: Symphonic Prog Progressive Rock
Країна, місто: Україна, Харків
Сайти: Офіційний сайт
Видавець: Caerllysi Music
Виконавці:
Aнтон Калугін - клавіші, вокал, програмування
William Mackie - ключi
Макс Величко - електричні та акустичні гітари
Олег Прохоров - бас
Іван Rubanchyuk - ударні
Анатолій Шмаргун - всі види перкусії
Сергій Oболонков - (тр. 2/3) і провідний вокал (тр. 10)
Сергій Ковальов - бек-вокал (тр. 2,3,5,7,10)
Михайло Сидоренко - альт-саксофон (тр. 1/4/5/8)

Пісні:
    01 - Soldier Of Fortune [00:08:29]
    02 - Another Game [00:04:44]
    03 - Let The Lady Smile [00:05:14]
    04 - Time After Time [00:06:11]
    05 - Spellbound [00:07:04]
    06 - The Way Back Home [00:07:07]
    07 - Miss You [00:05:34]
    08 - Sometimes [00:08:23]
    09 - Out Of The Abyss [00:09:48]
    10 - Life's Conundrum (Bonus Track) [00:04:40]

Тривалість: 01:07:19
Мова: англiйська, інструментальні композиці
Аудіо-кодек: FLAC
Бітрейт: 951-1085 кб/с
Джерело: трекер
Додаткова інформація:
EAC
Exact Audio Copy V1.0 beta 3 from 29. August 2011

EAC extraction logfile from 23. April 2014, 22:59

Hoggwash / Spellbound

Used drive : TSSTcorpCDDVDW SH-222BB Adapter: 0 ID: 1

Read mode : Secure
Utilize accurate stream : Yes
Defeat audio cache : Yes
Make use of C2 pointers : No

Read offset correction : 6
Overread into Lead-In and Lead-Out : No
Fill up missing offset samples with silence : Yes
Delete leading and trailing silent blocks : No
Null samples used in CRC calculations : Yes
Used interface : Installed external ASPI interface

Used output format : User Defined Encoder
Selected bitrate : 1024 kBit/s
Quality : High
Add ID3 tag : No
Command line compressor : C:\Program Files (x86)\Exact Audio Copy\wavpack.exe
Additional command line options : -hm %source% %dest%

TOC of the extracted CD

Track | Start | Length | Start sector | End sector
---------------------------------------------------------
1 | 0:00.00 | 8:29.10 | 0 | 38184
2 | 8:29.10 | 4:44.65 | 38185 | 59549
3 | 13:14.00 | 5:14.37 | 59550 | 83136
4 | 18:28.37 | 6:11.06 | 83137 | 110967
5 | 24:39.43 | 7:04.67 | 110968 | 142834
6 | 31:44.35 | 7:07.43 | 142835 | 174902
7 | 38:52.03 | 5:34.41 | 174903 | 199993
8 | 44:26.44 | 8:23.54 | 199994 | 237772
9 | 52:50.23 | 9:48.01 | 237773 | 281873
10 | 62:38.24 | 4:40.59 | 281874 | 302932

Range status and errors

Selected range

Filename F:\NetLab\Hoggwash - Spellbound\Hoggwash - Spellbound.wav

Peak level 100.0 %
Extraction speed 7.2 X
Range quality 99.9 %
Test CRC D02C06FD
Copy CRC D02C06FD
Copy OK

No errors occurred

AccurateRip summary

Track 1 accurately ripped (confidence 7) [D10470A1] (AR v2)
Track 2 accurately ripped (confidence 7) [D9DF0401] (AR v2)
Track 3 accurately ripped (confidence 7) [6914F70A] (AR v2)
Track 4 accurately ripped (confidence 7) [865E5DA0] (AR v2)
Track 5 accurately ripped (confidence 7) [04170C33] (AR v2)
Track 6 accurately ripped (confidence 7) [371E0A24] (AR v2)
Track 7 accurately ripped (confidence 7) [C4710049] (AR v2)
Track 8 accurately ripped (confidence 7) [7383C757] (AR v2)
Track 9 accurately ripped (confidence 7) [2B523E19] (AR v2)
Track 10 accurately ripped (confidence 7) [D9AAB55A] (AR v2)

All tracks accurately ripped

End of status report

---- CUETools DB Plugin V2.1.3

[CTDB TOCID: dfgt547_yrq5KkVemShQyUWTKx8-] found, Submit result: dfgt547_yrq5KkVemShQyUWTKx8- has been confirmed
[1e483e47] (1/1) Accurately ripped
(.CUE)
REM GENRE "Progressive Rock / Symphonic Prog"
REM DATE 2013
REM DISCID 7F0FC70A
REM COMMENT "ExactAudioCopy v1.0b3"
PERFORMER "Hoggwash"
TITLE "Spellbound"
FILE "Hoggwash - Spellbound.wv" WAVE
TRACK 01 AUDIO
TITLE "Soldier of Fortune"
PERFORMER "Hoggwash"
INDEX 01 00:00:00
TRACK 02 AUDIO
TITLE "Another Game"
PERFORMER "Hoggwash"
INDEX 01 08:29:10
TRACK 03 AUDIO
TITLE "Let the Lady Smile"
PERFORMER "Hoggwash"
INDEX 01 13:14:00
TRACK 04 AUDIO
TITLE "Time After Time"
PERFORMER "Hoggwash"
INDEX 01 18:28:37
TRACK 05 AUDIO
TITLE "Spellbound"
PERFORMER "Hoggwash"
INDEX 01 24:39:43
TRACK 06 AUDIO
TITLE "The Way Back Home"
PERFORMER "Hoggwash"
INDEX 01 31:44:35
TRACK 07 AUDIO
TITLE "Miss You"
PERFORMER "Hoggwash"
INDEX 01 38:52:03
TRACK 08 AUDIO
TITLE "Sometimes"
PERFORMER "Hoggwash"
INDEX 01 44:26:44
TRACK 09 AUDIO
TITLE "Out of the Abyss"
PERFORMER "Hoggwash"
INDEX 01 52:50:23
TRACK 10 AUDIO
TITLE "Life's Conundrum"
PERFORMER "Hoggwash"
INDEX 01 62:38:24
Лог якостi
AUDIOCHECKER v2.0 beta (build 457) - by Dester - [email protected]
~~~~~~~~~~~~~~~~~~~~~~~~~~~~~~~~~~
-=== DO NOT EDIT THIS FILE! ===-

Path: ...\Hoggwash - Spellbound

01 -=- 01 - Soldier of Fortune.flac -=- CDDA (100%)
02 -=- 02 - Another Game.flac -=- CDDA (100%)
03 -=- 03 - Let the Lady Smile.flac -=- CDDA (99%)
04 -=- 04 - Time After Time.flac -=- CDDA (99%)
05 -=- 05 - Spellbound.flac -=- CDDA (100%)
06 -=- 06 - The Way Back Home.flac -=- CDDA (100%)
07 -=- 07 - Miss You.flac -=- CDDA (100%)
08 -=- 08 - Sometimes.flac -=- CDDA (100%)
09 -=- 09 - Out of the Abyss.flac -=- CDDA (100%)
10 -=- 10 - Life's Conundrum.flac -=- CDDA (100%)

Summary 99,80% CDDA

231554372


Якщо Ви справді бажаєте підтримати українське - після прослуховування, якщо музика вам сподобалась, придбайте ліцензійний диск. Підтримаймо вітчизняних виконавців!


Срібний реліз (на рейтинг впливає 50% завантаженого)
 Трекер:    Зареєстрований   

Завантажити / скачати українську музику



відео для новачків



 Зареєстрований:   2016-10-15 20:52
 Розмір:   487 MB 
 Оцінка музики:   10/10 (Голосів: 1)
   
kolpavel 
VIP


З нами з: 04.05.14
Востаннє: 07.12.16
Повідомлень: 1059

2016-10-15 20:55  
MP3 тут - http://toloka.to/t73183

Ваш часовий пояс: GMT + 2 Години

Нова тема   Відповісти