Завантажити та скачати торренти українською


Soundreason Featuring Tanya Arefyeva - Why Not A Samba (2001) [FLAC] | Contemporary Jazz/Smooth Jazz

Нові коментарі

Нова тема   Відповісти
Автор Повідомлення
kolpavel 
VIP


З нами з: 04.05.14
Востаннє: 09.12.16
Повідомлень: 1059

2016-10-15 20:21  
Soundreason Featuring Tanya Arefyeva - Why Not A Samba (2001) [FLAC] | Contemporary Jazz/Smooth Jazz

Soundreason Featuring Tanya Arefyeva - Why Not A Samba (2001) [FLAC] | Contemporary Jazz/Smooth Jazz


Стиль: Contemporary Jazz Smooth Jazz
Країна, місто: Україна, Київ
Видавець: JJ.R.C. ‎– JRC 01206-2, McLaren Zoo ‎– MZ 7 17-601

Виконавці:
Бас - Олександр Ларучкiн
Барабани - Олег "O.K." Косівський
Клавішнi - Павло Столбов
Саксофон - Ігор Чернов
Вокал - Таня Ареф'єва

Пісні:
    01. All Of Me - 3:30
    02. Autumn Leaves - 5:15
    03. Aulluby Of Birdland - 3:12
    04. How High The Moon -2:26
    05. Orpheo Negro - 6:10
    06. Corcovado - 5:42
    07. So Dance Samba - 2:39
    08. One Note Samba - 2:44
    09. Aqua De Beber - 4:39
    10. Dindi - 6:17

Тривалість: 00:42:37
Мова: англiйська, потугальська.
Аудіо-кодек: FLAC
Бітрейт: 695-879 кб/с
Джерело: трекер
Додаткова інформація:
EAC
Exact Audio Copy V1.0 beta 6 from 9. April 2015

EAC extraction logfile from 1. February 2016, 18:42

Soundreason / Why Not A Samba

Used drive : TEAC CD-W524E Adapter: 1 ID: 2

Read mode : Secure
Utilize accurate stream : Yes
Defeat audio cache : Yes
Make use of C2 pointers : No

Read offset correction : 686
Overread into Lead-In and Lead-Out : No
Fill up missing offset samples with silence : Yes
Delete leading and trailing silent blocks : No
Null samples used in CRC calculations : Yes
Used interface : Native Win32 interface for Win NT & 2000
Gap handling : Appended to previous track

Used output format : Internal WAV Routines
Sample format : 44.100 Hz; 16 Bit; Stereo

TOC of the extracted CD

Track | Start | Length | Start sector | End sector
---------------------------------------------------------
1 | 0:00.00 | 3:30.74 | 0 | 15823
2 | 3:30.74 | 5:16.12 | 15824 | 39535
3 | 8:47.11 | 3:12.13 | 39536 | 53948
4 | 11:59.24 | 2:27.01 | 53949 | 64974
5 | 14:26.25 | 6:10.37 | 64975 | 92761
6 | 20:36.62 | 5:42.27 | 92762 | 118438
7 | 26:19.14 | 2:39.45 | 118439 | 130408
8 | 28:58.59 | 2:44.35 | 130409 | 142743
9 | 31:43.19 | 4:39.35 | 142744 | 163703
10 | 36:22.54 | 6:14.11 | 163704 | 191764

Track 1

Filename I:\CD_lossless_my\Soundreason - Why not a samba (2001)\01. Soundreason - All Of Me.wav

Pre-gap length 0:00:02.00

Peak level 89.2 %
Extraction speed 4.6 X
Track quality 100.0 %
Test CRC 63B4A21D
Copy CRC 63B4A21D
Track not present in AccurateRip database
Copy OK

Track 2

Filename I:\CD_lossless_my\Soundreason - Why not a samba (2001)\02. Soundreason - Autumn Leaves.wav

Peak level 89.3 %
Extraction speed 5.5 X
Track quality 100.0 %
Test CRC 33D5D990
Copy CRC 33D5D990
Track not present in AccurateRip database
Copy OK

Track 3

Filename I:\CD_lossless_my\Soundreason - Why not a samba (2001)\03. Soundreason - Lullaby Of Birdland.wav

Peak level 89.0 %
Extraction speed 5.6 X
Track quality 100.0 %
Test CRC DE43478C
Copy CRC DE43478C
Track not present in AccurateRip database
Copy OK

Track 4

Filename I:\CD_lossless_my\Soundreason - Why not a samba (2001)\04. Soundreason - How High The Moon.wav

Peak level 89.4 %
Extraction speed 5.6 X
Track quality 100.0 %
Test CRC 03AAB143
Copy CRC 03AAB143
Track not present in AccurateRip database
Copy OK

Track 5

Filename I:\CD_lossless_my\Soundreason - Why not a samba (2001)\05. Soundreason - Orpheo Negro.wav

Peak level 88.9 %
Extraction speed 4.3 X
Track quality 99.9 %
Test CRC DDAE73B6
Copy CRC DDAE73B6
Track not present in AccurateRip database
Copy OK

Track 6

Filename I:\CD_lossless_my\Soundreason - Why not a samba (2001)\06. Soundreason - Corcovado.wav

Peak level 89.0 %
Extraction speed 7.4 X
Track quality 100.0 %
Test CRC 871FACD9
Copy CRC 871FACD9
Track not present in AccurateRip database
Copy OK

Track 7

Filename I:\CD_lossless_my\Soundreason - Why not a samba (2001)\07. Soundreason - So Dance Samba.wav

Peak level 89.0 %
Extraction speed 6.6 X
Track quality 100.0 %
Test CRC 3C47DCA1
Copy CRC 3C47DCA1
Track not present in AccurateRip database
Copy OK

Track 8

Filename I:\CD_lossless_my\Soundreason - Why not a samba (2001)\08. Soundreason - One Note Samba.wav

Peak level 89.2 %
Extraction speed 7.1 X
Track quality 100.0 %
Test CRC D8402BE4
Copy CRC D8402BE4
Track not present in AccurateRip database
Copy OK

Track 9

Filename I:\CD_lossless_my\Soundreason - Why not a samba (2001)\09. Soundreason - Aqua De Beber.wav

Peak level 89.1 %
Extraction speed 7.9 X
Track quality 100.0 %
Test CRC 4F8422FF
Copy CRC 4F8422FF
Track not present in AccurateRip database
Copy OK

Track 10

Filename I:\CD_lossless_my\Soundreason - Why not a samba (2001)\10. Soundreason - Dindi.wav

Peak level 89.1 %
Extraction speed 4.8 X
Track quality 99.9 %
Test CRC 8245D84A
Copy CRC 8245D84A
Track not present in AccurateRip database
Copy OK

None of the tracks are present in the AccurateRip database

No errors occurred

End of status report

---- CUETools DB Plugin V2.1.6

[CTDB TOCID: w1z5siUTF9h5_mtm8SRztBoPsL4-] disk not present in database
Submit result: w1z5siUTF9h5_mtm8SRztBoPsL4- has been uploaded

==== Log checksum 33876D519EDA28CEA83809F756A1D76A06832F6F76CA9051718DFAA6ABB0F5F4 ====
(.CUE)
REM GENRE Jazz
REM DATE 2001
REM DISCID 7E09FC0A
REM COMMENT "ExactAudioCopy v1.0b6"
PERFORMER "Soundreason"
TITLE "Why Not A Samba"
FILE "01. Soundreason - All Of Me.wav" WAVE
TRACK 01 AUDIO
TITLE "All Of Me"
PERFORMER "Soundreason"
INDEX 01 00:00:00
FILE "02. Soundreason - Autumn Leaves.wav" WAVE
TRACK 02 AUDIO
TITLE "Autumn Leaves"
PERFORMER "Soundreason"
INDEX 01 00:00:00
FILE "03. Soundreason - Lullaby Of Birdland.wav" WAVE
TRACK 03 AUDIO
TITLE "Lullaby Of Birdland"
PERFORMER "Soundreason"
INDEX 01 00:00:00
FILE "04. Soundreason - How High The Moon.wav" WAVE
TRACK 04 AUDIO
TITLE "How High The Moon"
PERFORMER "Soundreason"
INDEX 01 00:00:00
FILE "05. Soundreason - Orpheo Negro.wav" WAVE
TRACK 05 AUDIO
TITLE "Orpheo Negro"
PERFORMER "Soundreason"
INDEX 01 00:00:00
FILE "06. Soundreason - Corcovado.wav" WAVE
TRACK 06 AUDIO
TITLE "Corcovado"
PERFORMER "Soundreason"
INDEX 01 00:00:00
FILE "07. Soundreason - So Dance Samba.wav" WAVE
TRACK 07 AUDIO
TITLE "So Dance Samba"
PERFORMER "Soundreason"
INDEX 01 00:00:00
FILE "08. Soundreason - One Note Samba.wav" WAVE
TRACK 08 AUDIO
TITLE "One Note Samba"
PERFORMER "Soundreason"
INDEX 01 00:00:00
FILE "09. Soundreason - Aqua De Beber.wav" WAVE
TRACK 09 AUDIO
TITLE "Aqua De Beber"
PERFORMER "Soundreason"
INDEX 01 00:00:00
FILE "10. Soundreason - Dindi.wav" WAVE
TRACK 10 AUDIO
TITLE "Dindi"
PERFORMER "Soundreason"
INDEX 01 00:00:00


Якщо Ви справді бажаєте підтримати українське - після прослуховування, якщо музика вам сподобалась, придбайте ліцензійний диск. Підтримаймо вітчизняних виконавців!


Срібний реліз (на рейтинг впливає 50% завантаженого)
 Трекер:    Зареєстрований   

Завантажити / скачати українську музику



відео для новачків



 Зареєстрований:   2016-10-15 20:21
 Розмір:   248 MB 
 Оцінка музики:   10/10 (Голосів: 1)
   
Ваш часовий пояс: GMT + 2 Години

Нова тема   Відповісти