Завантажити та скачати торренти українською


Скубі-Ду! Відпочинок з привидами / Scooby-Doo! Haunted Holidays (2012) Ukr/Eng | Sub Eng

Нові коментарі

Нова тема   Відповісти
Автор Повідомлення
Anonymous 







2016-10-15 15:46  
Скубі-Ду! Відпочинок з привидами / Scooby-Doo! Haunted Holidays (2012) Ukr/Eng | Sub Eng

Скубі-Ду! Відпочинок з привидами / Scooby-Doo! Haunted Holidays (2012) Ukr/Eng | Sub Eng


Жанр: анімація, короткометражний, комедія
Країна: США



Кінокомпанія: Warner Bros. Animation
Режисер: Віктор Кук / Victor Cook
Актори: Скубі-Ду / Scooby-Doo
Ролі озвучують: Френк Велкер / Frenk Welker, Мелінда Кон / Mindy Cohn, Грей ДеЛісл / Grey DeLisle, Меттью Ліллард / Metthew Lillard, Карлос Алазракі / Carlos Alazraqui, Кріспін Фрімен / Crispin Freeman, Фред Татаскьор / Fred Tatasciore

Сюжет:
Різдвяний спеціальний випуск. Скубі-Ду та команда беруть участь у різдвяному параді, де зустрічаються зі Зловісним Сніговиком. Через що всім загрожує небезпека.

Тривалість: 00:21:49
Якість:
Відео:
кодек:
розмір кадру: 720 х 400
бітрейт: 2065 Кбіт/с

Аудіо # 1:
мова: українська
переклад: багатоголосий закадровий
кодек: 2.0
бітрейт: 192 Кбіт/с

Аудіо # 2:
мова: англійська
переклад: оригінал
кодек: 2.0
бітрейт: 384 Кбіт/с

Субтитри: окремо - завантажити
мова: англійська
тип: програмні (м'які)
формат: *.srt
MediaInfo
Код:
Complete name               : Scooby-Doo! Haunted Holidays (2012) [Ukr,Eng] [Hurtom].avi
Format                      : AVI
Format/Info                 : Audio Video Interleave
File size                   : 415 MiB
Duration                    : 21 min
Overall bit rate            : 2 656 kb/s
Movie name                  : Скубі-Ду! Відпочинок з привидами / Scooby-Doo! Haunted Holidays (2012)
Director                    : igor911
Genre                       : анімація, короткометражний, комедія
Writing application         : VirtualDubModUkr 1.5.10.2 (build 2542/release)
Writing library             : VirtualDubMod build 2542/release
Copyright                   : Hurtom.com
Comment                     : https://toloka.to/t76717

Video
ID                          : 0
Format                      : MPEG-4 Visual
Format profile              : Advanced [email protected]
Format settings, BVOP       : 2
Format settings, QPel       : No
Format settings, GMC        : No warppoints
Format settings, Matrix     : Custom
Codec ID                    :
Codec ID/Hint               :
Duration                    : 21 min
Bit rate                    : 2 066 kb/s
Width                       : 720 pixels
Height                      : 400 pixels
Display aspect ratio        : 16:9
Frame rate                  : 25.000 FPS
Color space                 : YUV
Chroma subsampling          : 4:2:0
Bit depth                   : 8 bits
Scan type                   : Progressive
Compression mode            : Lossy
Bits/(Pixel*Frame)          : 0.287
Stream size                 : 323 MiB (78%)
Writing library             : 65

Audio #1
ID                          : 1
Format                      : AC-3
Format/Info                 : Audio Coding 3
Mode extension              : CM (complete main)
Format settings, Endianness : Big
Codec ID                    : 2000
Duration                    : 21 min
Bit rate mode               : Constant
Bit rate                    : 192 kb/s
Channel(s)                  : 2 channels
Channel positions           : Front: L R
Sampling rate               : 48.0 kHz
Frame rate                  : 31.250 FPS (1536 spf)
Compression mode            : Lossy
Stream size                 : 30.0 MiB (7%)
Alignment                   : Split accross interleaves
Interleave, duration        : 40  ms (1.00 video frame)
Interleave, preload duratio : 500  ms
Title                       : Ukr MVO [ICTV] 2.0 192 Kbps [Hurtom-igor911,aaa4523]

Audio #2
ID                          : 2
Format                      : AC-3
Format/Info                 : Audio Coding 3
Mode extension              : CM (complete main)
Format settings, Endianness : Big
Codec ID                    : 2000
Duration                    : 21 min
Bit rate mode               : Constant
Bit rate                    : 384 kb/s
Channel(s)                  : 2 channels
Channel positions           : Front: L R
Sampling rate               : 48.0 kHz
Frame rate                  : 31.250 FPS (1536 spf)
Compression mode            : Lossy
Stream size                 : 60.0 MiB (14%)
Alignment                   : Split accross interleaves
Interleave, duration        : 40  ms (1.00 video frame)
Interleave, preload duratio : 500  ms
Title                       : Eng (original) 2.0 384 Kbps


Джерело: &
Український звук: igor911 зведення, aaa4523 запис з ТБ.





ЗАЛИШАЙТЕСЬ ЯКОМОГА ДОВШЕ НА РОЗДАЧІ!
СКАЧАВ САМ - ДАЙ СКАЧАТИ ІНШИМ


 Трекер:    Зареєстрований   

Завантажити / скачати мультфільм українською



відео для новачків



 Зареєстрований:   2016-10-15 15:56
 Розмір:   415 MB 
 Оцінка мультфільму:   3.5/10 (Голосів: 14)
   
Ваш часовий пояс: GMT + 2 Години

Нова тема   Відповісти