Завантажити та скачати торренти українською


Підривники / Blown Away (1994) 2xUkr

Нові коментарі

Нова тема   Відповісти
Автор Повідомлення
Anonymous 







2016-10-13 20:05  
Підривники / Blown Away (1994) 2xUkr


Альтернативні постери








повнорозмірні зображення відкриються по кліку (з натиснутим CTRL чи кліком середньою кнопкою мишки - у новій вкладці)


Жанр: бойовик, трилер, драма
Країна: США



Кінокомпанія: Metro-Goldwyn-Mayer (MGM), Trilogy Entertainment Group
Режисер: Стівен Гопкінс / Stephen Hopkins
Актори: Джеф Бріджес / Jeff Bridges, Томмі Лі Джонс / Tommy Lee Jones, Сьюзі Аміс / Suzy Amis, Ллойд Бріджес / Lloyd Bridges, Форест Вайтакер / Forest Whitaker, Джон Фінн / John Finn, Кейтлін Кларк / Caitlin Clarke, Крістофер Де Оні / Christofer de Oni, Стефі Лайнбург / Stephi Lineburg та інші

Сюжет:
Ллойд Бріджес в ролі сапера, що працює в поліції. Він збирається одружитися на прекрасній жінці, у якої є чудова донька. Але його майбутня дружина не знає про минуле свого чоловіка. А той у молодості був ірландським терористом, що спеціалізуються на вибухах. Колись він запобіг вибух, в результаті якого могли загинути сотні людей, але мимоволі став причиною загибелі своїх товаришів і коханої дівчини, дочки людини, який захопив його помилковим героїзмом цієї жорстокої боротьби і навчив усього, що можна знати про бомби. Втікши з в'язниці, вчитель знаходить невдячного учня і починає мстити за зраду, вбиваючи його колег по роботі, а в кінці плануючи вбити його нову сім'ю.


Рейтинг MPAA: R - особам до 17 років обов'язкова присутність батьків або дорослого опікуна
Вікова категорія: 15+

Тривалість: 02:00:53
Якість:
Відео:
кодек:
розмір кадру: 720 х 304
бітрейт: 2128 Кбіт/с

Аудіо # 1:
мова: українська
переклад: багатоголосий закадровий
кодек: 2.0
бітрейт: 192 Кбіт/с

Аудіо # 2:
мова: українська
переклад: двоголосий закадровий
ролі озвучили: Олександр Завальський і Олена Яблучна
кодек: 2.0
бітрейт: 192 Кбіт/с
MediaInfo
Код:
Complete name               : Blown Away (1994) [2xUkr] [Hurtom].avi
Format                      : AVI
Format/Info                 : Audio Video Interleave
Format profile              : OpenDML
File size                   : 2.13 GiB
Duration                    : 2 h 0 min
Overall bit rate            : 2 530 kb/s
Movie name                  : Підривники / Blown Away (1994)
Director                    : yaroslaigor & igor911
Genre                       : бойовик, трилер, драма
Writing application         : VirtualDubModUkr 1.5.10.2 (build 2542/release)
Writing library             : VirtualDubMod build 2542/release
Copyright                   : HQClub & Hurtom
Comment                     : 13.10.2016

Video
ID                          : 0
Format                      : MPEG-4 Visual
Format profile              : Advanced [email protected]
Format settings, BVOP       : 1
Format settings, QPel       : No
Format settings, GMC        : No warppoints
Format settings, Matrix     : Custom
Codec ID                    :
Codec ID/Hint               :
Duration                    : 2 h 0 min
Bit rate                    : 2 128 kb/s
Width                       : 720 pixels
Height                      : 304 pixels
Display aspect ratio        : 2.35:1
Frame rate                  : 23.976 (24000/1001) FPS
Color space                 : YUV
Chroma subsampling          : 4:2:0
Bit depth                   : 8 bits
Scan type                   : Progressive
Compression mode            : Lossy
Bits/(Pixel*Frame)          : 0.406
Stream size                 : 1.79 GiB (84%)
Writing library             : 65

Audio #1
ID                          : 1
Format                      : AC-3
Format/Info                 : Audio Coding 3
Mode extension              : CM (complete main)
Format settings, Endianness : Big
Codec ID                    : 2000
Duration                    : 2 h 0 min
Bit rate mode               : Constant
Bit rate                    : 192 kb/s
Channel(s)                  : 2 channels
Channel positions           : Front: L R
Sampling rate               : 48.0 kHz
Frame rate                  : 31.250 FPS (1536 spf)
Compression mode            : Lossy
Stream size                 : 166 MiB (8%)
Alignment                   : Split accross interleaves
Interleave, duration        : 42  ms (1.00 video frame)
Interleave, preload duratio : 500  ms
Title                       : MVO [ICTV] 2.0 192 Kbps [Hurtom-ilu,POMEO]

Audio #2
ID                          : 2
Format                      : AC-3
Format/Info                 : Audio Coding 3
Mode extension              : CM (complete main)
Format settings, Endianness : Big
Codec ID                    : 2000
Duration                    : 2 h 0 min
Bit rate mode               : Constant
Bit rate                    : 192 kb/s
Channel(s)                  : 2 channels
Channel positions           : Front: L R
Sampling rate               : 48.0 kHz
Frame rate                  : 31.250 FPS (1536 spf)
Compression mode            : Lossy
Stream size                 : 166 MiB (8%)
Alignment                   : Split accross interleaves
Interleave, duration        : 42  ms (1.00 video frame)
Interleave, preload duratio : 500  ms
Title                       : DVO [1+1] 2.0 192 Kbps [Hurtom-ilu,olgaya]


Джерело: & &
Подяка за український звук ilu, POMEO, olgaya, за укр.постери - hellforces та dr_stas

ЗАЛИШАЙТЕСЬ ЯКОМОГА ДОВШЕ НА РОЗДАЧІ!
СКАЧАВ САМ - ДАЙ СКАЧАТИ ІНШИМ


Срібний реліз (на рейтинг впливає 50% завантаженого)
 Трекер:    Зареєстрований   

Завантажити / скачати фільм українською



відео для новачків



 Зареєстрований:   2016-10-13 20:05
 Розмір:   2.13 GB 
 Оцінка фільму:   4.9/10 (Голосів: 19)
   
Інші релізи
   Підривники / Blown Away (1994) 720p 2xUkr/Eng | Sub Eng igor911  4 / 0   7.68 GB   2016-10-13 19:20 
Ваш часовий пояс: GMT + 2 Години

Нова тема   Відповісти