Завантажити та скачати торренти українською


Підривники / Blown Away (1994) 720p 2xUkr/Eng | Sub Eng

Нові коментарі

Нова тема   Відповісти
Автор Повідомлення
Anonymous 







2016-10-13 18:30  
Підривники / Blown Away (1994) 720p 2xUkr/Eng | Sub Eng


Альтернативні постери








повнорозмірні зображення відкриються по кліку (з натиснутим CTRL чи кліком середньою кнопкою мишки - у новій вкладці)


Жанр: бойовик, трилер, драма
Країна: США



Кінокомпанія: Metro-Goldwyn-Mayer (MGM), Trilogy Entertainment Group
Режисер: Стівен Гопкінс / Stephen Hopkins
Актори: Джеф Бріджес / Jeff Bridges, Томмі Лі Джонс / Tommy Lee Jones, Сьюзі Аміс / Suzy Amis, Ллойд Бріджес / Lloyd Bridges, Форест Вайтакер / Forest Whitaker, Джон Фінн / John Finn, Кейтлін Кларк / Caitlin Clarke, Крістофер Де Оні / Christofer de Oni, Стефі Лайнбург / Stephi Lineburg та інші

Сюжет:
Ллойд Бріджес в ролі сапера, що працює в поліції. Він збирається одружитися на прекрасній жінці, у якої є чудова донька. Але його майбутня дружина не знає про минуле свого чоловіка. А той у молодості був ірландським терористом, що спеціалізуються на вибухах. Колись він запобіг вибух, в результаті якого могли загинути сотні людей, але мимоволі став причиною загибелі своїх товаришів і коханої дівчини, дочки людини, який захопив його помилковим героїзмом цієї жорстокої боротьби і навчив усього, що можна знати про бомби. Втікши з в'язниці, вчитель знаходить невдячного учня і починає мстити за зраду, вбиваючи його колег по роботі, а в кінці плануючи вбити його нову сім'ю.


Рейтинг MPAA: R - особам до 17 років обов'язкова присутність батьків або дорослого опікуна
Вікова категорія: 15+

Тривалість: 02:00:53
Якість: 720p
Відео:
кодек:
розмір кадру: 1280 х 534
бітрейт: 8002 Кбіт/с [crf=17]

Аудіо # 1:
мова: українська
переклад: багатоголосий закадровий
кодек: 2.0
бітрейт: 192 Кбіт/с

Аудіо # 2:
мова: українська
переклад: двоголосий закадровий
ролі озвучили: Олександр Завальський і Олена Яблучна
кодек: 2.0
бітрейт: 192 Кбіт/с

Аудіо # 3:
мова: англійська
переклад: оригінал
кодек: 5.1
бітрейт: 640 Кбіт/с

Аудіо # 4:
мова: англійська
переклад: коментарі режисера Стівена Гопкінса
кодек: 2.0
бітрейт: 81 Кбіт/с

Субтитри:
мова: англійська
тип: програмні (м'які)
формат: *.srt

Збережено оригінальні розділи, як на Blu-ray.
MediaInfo
Код:
Complete name               : Blown Away (1994) [2xUkr,Eng sub.Eng] 720p [Hurtom].mkv
Format                      : Matroska
Format version              : Version 4 / Version 2
File size                   : 7.68 GiB
Duration                    : 2 h 0 min
Overall bit rate            : 9 109 kb/s
Movie name                  : Підривники / Blown Away (1994) [2xUkr,Eng sub.Eng] 720p [Hurtom] by igor911
Released date               : 1994
Cover                       : Yes
Comment                     : http://www.imdb.com/title/tt0109303/
Attachments                 : cover.jpg
ARTIST                      : Джеф Бріджес / Jeff Bridges, Томмі Лі Джонс / Tommy Lee Jones, Сьюзі Аміс / Suzy Amis, Ллойд Бріджес / Lloyd Bridges, Форест Вайтакер / Forest Whitaker, Джон Фінн / John Finn, Кейтлін Кларк / Caitlin Clarke, Крістофер Де Оні / Christofer de Oni, Стефі Лайнбург / Stephi Lineburg та інші
DIRECTOR                    : Стівен Гопкінс / Stephen Hopkins
GENRE                       : бойовик, трилер, драма
SYNOPSIS                    : Cапера, що працює в поліції, збирається одружитися на прекрасній жінці, у якої є чудова донька. Але його майбутня дружина не знає про минуле свого чоловіка. А той у молодості був ірландським терористом, що спеціалізуються на вибухах. Колись він запобіг вибух, в результаті якого могли загинути сотні людей, але мимоволі став причиною загибелі своїх товаришів і коханої дівчини, дочки людини, який захопив його помилковим героїзмом цієї жорстокої боротьби і навчив усього, що можна знати про бомби. Втікши з в'язниці, вчитель знаходить невдячного учня і починає мстити за зраду, вбиваючи його колег по роботі, а в кінці плануючи вбити його нову сім'ю.
Url                         : https://toloka.to/t76653

Video
ID                          : 1
Format                      : AVC
Format/Info                 : Advanced Video Codec
Format profile              : [email protected]
Format settings, CABAC      : Yes
Format settings, ReFrames   : 12 frames
Codec ID                    : V_MPEG4/ISO/AVC
Duration                    : 2 h 0 min
Bit rate                    : 8 002 kb/s
Width                       : 1 280 pixels
Height                      : 534 pixels
Display aspect ratio        : 2.40:1
Frame rate mode             : Constant
Frame rate                  : 23.976 (24000/1001) FPS
Color space                 : YUV
Chroma subsampling          : 4:2:0
Bit depth                   : 8 bits
Scan type                   : Progressive
Bits/(Pixel*Frame)          : 0.488
Stream size                 : 6.75 GiB (88%)
Title                       : Підривники / Blown Away (1994) 720p [HDClub-SbR]
Writing library             : core 146 r0+2586 e393126 t_mod_Custom [[email protected] X86_64]
Encoding settings           : cabac=1 / ref=12 / deblock=1:-3:-3 / analyse=0x3:0x133 / me=umh / subme=11 / psy=1 / fade_compensate=0.00 / psy_rd=1.05:0.15 / mixed_ref=1 / me_range=24 / chroma_me=1 / trellis=2 / 8x8dct=1 / cqm=0 / deadzone=21,11 / fast_pskip=0 / chroma_qp_offset=-3 / threads=6 / lookahead_threads=1 / sliced_threads=0 / nr=0 / decimate=1 / interlaced=0 / bluray_compat=0 / constrained_intra=0 / fgo=0 / bframes=12 / b_pyramid=2 / b_adapt=2 / b_bias=0 / direct=3 / weightb=1 / open_gop=0 / weightp=2 / keyint=250 / keyint_min=23 / scenecut=40 / intra_refresh=0 / rc_lookahead=60 / rc=crf / mbtree=0 / crf=17.0000 / qcomp=0.60 / qpmin=0:0:0 / qpmax=69:69:69 / qpstep=4 / vbv_maxrate=62500 / vbv_bufsize=78125 / crf_max=0.0 / nal_hrd=none / filler=0 / ip_ratio=1.30 / pb_ratio=1.20 / aq=1:0.80 / aq-sensitivity=10.00 / aq-factor=1.00:1.00:1.00 / aq2=0 / aq3=0
Language                    : English
Default                     : Yes
Forced                      : No
Color range                 : Limited
Color primaries             : BT.709
Transfer characteristics    : BT.709
Matrix coefficients         : BT.709

Audio #1
ID                          : 2
Format                      : AC-3
Format/Info                 : Audio Coding 3
Mode extension              : CM (complete main)
Format settings, Endianness : Big
Codec ID                    : A_AC3
Duration                    : 2 h 0 min
Bit rate mode               : Constant
Bit rate                    : 192 kb/s
Channel(s)                  : 2 channels
Channel positions           : Front: L R
Sampling rate               : 48.0 kHz
Frame rate                  : 31.250 FPS (1536 spf)
Compression mode            : Lossy
Stream size                 : 166 MiB (2%)
Title                       : MVO [ICTV] 2.0 192 Kbps [Hurtom-ilu,POMEO]
Language                    : Ukrainian
Default                     : Yes
Forced                      : No

Audio #2
ID                          : 3
Format                      : AC-3
Format/Info                 : Audio Coding 3
Mode extension              : CM (complete main)
Format settings, Endianness : Big
Codec ID                    : A_AC3
Duration                    : 2 h 0 min
Bit rate mode               : Constant
Bit rate                    : 192 kb/s
Channel(s)                  : 2 channels
Channel positions           : Front: L R
Sampling rate               : 48.0 kHz
Frame rate                  : 31.250 FPS (1536 spf)
Compression mode            : Lossy
Stream size                 : 166 MiB (2%)
Title                       : DVO [1+1] 2.0 192 Kbps [Hurtom-ilu,olgaya]
Language                    : Ukrainian
Default                     : No
Forced                      : No

Audio #3
ID                          : 4
Format                      : AC-3
Format/Info                 : Audio Coding 3
Mode extension              : CM (complete main)
Format settings, Endianness : Big
Codec ID                    : A_AC3
Duration                    : 2 h 0 min
Bit rate mode               : Constant
Bit rate                    : 640 kb/s
Channel(s)                  : 6 channels
Channel positions           : Front: L C R, Side: L R, LFE
Sampling rate               : 48.0 kHz
Frame rate                  : 31.250 FPS (1536 spf)
Compression mode            : Lossy
Stream size                 : 553 MiB (7%)
Title                       : Original, 5.1 640 Kbps
Language                    : English
Default                     : No
Forced                      : No

Audio #4
ID                          : 5
Format                      :
Format/Info                 : Advanced Audio Codec
Format profile              : LC
Codec ID                    : A_AAC
Duration                    : 2 h 0 min
Bit rate                    : 79.5 kb/s
Channel(s)                  : 2 channels
Channel positions           : Front: L R
Sampling rate               : 48.0 kHz
Frame rate                  : 46.875 FPS (1024 spf)
Compression mode            : Lossy
Delay relative to video     : 9 ms
Stream size                 : 68.6 MiB (1%)
Title                       : Commentary, 2.0 81 Kbps
Language                    : English
Default                     : No
Forced                      : No

Text
ID                          : 6
Format                      : UTF-8
Codec ID                    : S_TEXT/UTF8
Codec ID/Info               : UTF-8 Plain Text
Duration                    : 1 h 53 min
Bit rate                    : 44 b/s
Count of elements           : 1038
Stream size                 : 37.0 KiB (0%)
Language                    : English
Default                     : No
Forced                      : No

Menu
00:00:00.000                : en:00:00:00.000
00:16:33.450                : en:00:16:33.450
00:34:24.771                : en:00:34:24.771
00:52:07.833                : en:00:52:07.833
01:11:45.426                : en:01:11:45.426
01:21:58.455                : en:01:21:58.455
01:35:07.868                : en:01:35:07.868
01:49:33.984                : en:01:49:33.984
Оригінал <----------> Ріп






Джерело: &
Подяка за український звук ilu, POMEO, olgaya, за укр.постери - hellforces та dr_stas

ЗАЛИШАЙТЕСЬ ЯКОМОГА ДОВШЕ НА РОЗДАЧІ!
СКАЧАВ САМ - ДАЙ СКАЧАТИ ІНШИМ


Срібний реліз (на рейтинг впливає 50% завантаженого)
 Трекер:    Зареєстрований   

Завантажити / скачати фільм українською



відео для новачків



 Зареєстрований:   2016-10-13 19:20
 Розмір:   7.68 GB 
 Оцінка фільму:   2.5/10 (Голосів: 12)
   
Інші релізи
   Підривники / Blown Away (1994) 2xUkr igor911  5 / 0   2.13 GB   2016-10-13 20:05 
bot 
робот


З нами з: 30.09.07
Востаннє: 26.05.05
Повідомлень: 16024

2016-10-13 19:19  
Тему перенесено з Анонси релізів до форуму Фільми в HD


igor911

Anonymous 







2016-10-13 20:26  
avi
Ваш часовий пояс: GMT + 2 Години

Нова тема   Відповісти