Завантажити та скачати торренти українською


День незалежності 2: Відродження / Independence Day: Resurgence (2016) 1080p 3D [HalfOverUnder] Ukr/Eng | Sub Ukr/Eng

Нові коментарі

Нова тема   Відповісти
Автор Повідомлення
-VipeR- 
VIP


З нами з: 17.07.08
Востаннє: 07.12.16
Повідомлень: 275

2016-10-13 11:46  
День незалежності 2: Відродження / Independence Day: Resurgence (2016) 1080p 3D [HalfOverUnder] Ukr/Eng | Sub Ukr/Eng

День незалежності 2: Відродження / Independence Day: Resurgence (2016) 1080p 3D [HalfOverUnder] Ukr/Eng | Sub Ukr/Eng


Жанр: фантастика, бойовик, пригодницький
Країна: США



Кінокомпанія: Centropolis Entertainment, Stereo D, Twentieth Century Fox
Режисер: Роланд Еммеріх / Roland Emmerich
Актори: Ліам Гемсворт / Liam Hemsworth, Джефф Ґолдблюм / Jeff Goldblum, Білл Пуллман / Bill Pullman, Майка Монро / Maika Monroe, Джої Кінґ / Joey King, Вільям Фіхтнер / William Fichtner, Шарлотта Ґенсбурґ / Charlotte Gainsbourg, Вівіка А. Фокс / Vivica A. Fox, Села Вард / Sela Ward, Брент Спайнер / Brent Spiner, Джадд Хірш / Judd Hirsch та інші

Сюжет:
Сиквел однієї з найпопулярніших стрічок-катастроф 90-их про вторгнення інопланетян на планету Земля "День незалежності" Роланда Еммеріха. Режисер "Ґодзілли", "2012" і "Післязавтра" через двадцять років повернувся до знаменитої історії. Після подій минули два десятиріччя. Людство, адаптувавши технології прибульців, створило глобальну оборонну систему. Деякі військові сили були розміщені на Марсі, Місяці та Реї. До своєї остаточної поразки 20 років тому інопланетяни встигли послати у космос сигнал лиха. Тепер в сторону Землі прямує більш потужний і численний флот. Чи зможе на цей раз винахідливість кількох осіб врятувати цивілізацію?


Тривалість: 01:59:44
Якість: 1080p 3D [HalfOverUnder] by ash61
Відео:
кодек:
розмір кадру: 1920 х 1080
бітрейт: 7073 кб/с

Аудіо # 1:
мова: українська
переклад: професійний дубльований
кодек: 5.1
бітрейт: 448 кб/с

Аудіо # 2:
мова: англійська
переклад: оригінал
кодек: 5.1
бітрейт: 640 кб/с

Субтитри:
мова: українська (Повні, форсовані)
тип: програмні (м'які)
формат: *.srt

Субтитри:
мова: англійська (Full,Forced)
тип: програмні (м'які)
формат: *.srt
MediaInfo
Код:
General
Unique ID                      : 202968264538727488452849158222462354536 (0x98B2440E529191AAA6D5382134888468)
Complete name                  : D:\3D\Художні\Independence Day Resurgence (2016) 1080p 3D [HalfOverUnder] UkrEng  Sub UkrEng .mkv
Format                         : Matroska
Format version                 : Version 4 / Version 2
File size                      : 6.83 GiB
Duration                       : 1h 59mn
Overall bit rate               : 8 163 Kbps
Movie name                     : День незалежності: Відродження / Independence Day: Resurgence (2016) в 3Д
Encoded date                   : UTC 2016-10-13 09:17:27
Writing application            : mkvmerge v8.8.0 ('Wind at my back') 64bit
Writing library                : libebml v1.3.3 + libmatroska v1.4.4
Cover                          : Yes
Attachments                    : cover.jpg

Video
ID                             : 1
Format                         : AVC
Format/Info                    : Advanced Video Codec
Format profile                 : [email protected]
Format settings, CABAC         : Yes
Format settings, ReFrames      : 4 frames
Codec ID                       : V_MPEG4/ISO/AVC
Duration                       : 1h 59mn
Bit rate                       : 7 073 Kbps
Width                          : 1 920 pixels
Height                         : 1 080 pixels
Display aspect ratio           : 16:9
Frame rate mode                : Constant
Frame rate                     : 23.976 (24000/1001) fps
Color space                    : YUV
Chroma subsampling             : 4:2:0
Bit depth                      : 8 bits
Scan type                      : Progressive
Bits/(Pixel*Frame)             : 0.142
Stream size                    : 5.91 GiB (87%)
Title                          : by Ash61
Writing library                : core 146 r2538 121396c
Encoding settings              : cabac=1 / ref=4 / deblock=1:-3:-3 / analyse=0x3:0x113 / me=umh / subme=10 / psy=1 / psy_rd=1.00:0.00 / mixed_ref=1 / me_range=32 / chroma_me=1 / trellis=2 / 8x8dct=1 / cqm=0 / deadzone=21,11 / fast_pskip=1 / chroma_qp_offset=-2 / threads=12 / lookahead_threads=2 / sliced_threads=0 / nr=0 / decimate=1 / interlaced=0 / bluray_compat=0 / constrained_intra=0 / bframes=9 / b_pyramid=2 / b_adapt=2 / b_bias=0 / direct=3 / weightb=1 / open_gop=0 / weightp=2 / keyint=250 / keyint_min=23 / scenecut=40 / intra_refresh=0 / rc_lookahead=60 / rc=crf / mbtree=1 / crf=15.5 / qcomp=0.70 / qpmin=0 / qpmax=69 / qpstep=4 / vbv_maxrate=40000 / vbv_bufsize=30000 / crf_max=0.0 / nal_hrd=none / filler=0 / frame-packing=4 / ip_ratio=1.40 / aq=1:0.70
Language                       : English
Default                        : Yes
Forced                         : No

Audio #1
ID                             : 2
Format                         : AC-3
Format/Info                    : Audio Coding 3
Mode extension                 : CM (complete main)
Format settings, Endianness    : Big
Codec ID                       : A_AC3
Duration                       : 1h 59mn
Bit rate mode                  : Constant
Bit rate                       : 448 Kbps
Channel(s)                     : 6 channels
Channel positions              : Front: L C R, Side: L R, LFE
Sampling rate                  : 48.0 KHz
Frame rate                     : 31.250 fps (1536 spf)
Compression mode               : Lossy
Stream size                    : 384 MiB (5%)
Title                          : Дубляж - BD 3D Eur
Language                       : Ukrainian
Default                        : No
Forced                         : No

Audio #2
ID                             : 3
Format                         : AC-3
Format/Info                    : Audio Coding 3
Mode extension                 : CM (complete main)
Format settings, Endianness    : Big
Codec ID                       : A_AC3
Duration                       : 1h 59mn
Bit rate mode                  : Constant
Bit rate                       : 640 Kbps
Channel(s)                     : 6 channels
Channel positions              : Front: L C R, Side: L R, LFE
Sampling rate                  : 48.0 KHz
Frame rate                     : 31.250 fps (1536 spf)
Compression mode               : Lossy
Stream size                    : 548 MiB (8%)
Title                          : Original - BD 3D Eur
Language                       : English
Default                        : No
Forced                         : No

Text #1
ID                             : 4
Format                         : UTF-8
Codec ID                       : S_TEXT/UTF8
Codec ID/Info                  : UTF-8 Plain Text
Duration                       : 1h 35mn
Bit rate                       : 0 bps
Count of elements              : 14
Stream size                    : 506 Bytes (0%)
Title                          : Форсовані
Language                       : Ukrainian
Default                        : No
Forced                         : No

Text #2
ID                             : 5
Format                         : UTF-8
Codec ID                       : S_TEXT/UTF8
Codec ID/Info                  : UTF-8 Plain Text
Duration                       : 1h 58mn
Bit rate                       : 81 bps
Count of elements              : 1733
Stream size                    : 71.0 KiB (0%)
Title                          : Повні
Language                       : Ukrainian
Default                        : No
Forced                         : No

Text #3
ID                             : 6
Format                         : UTF-8
Codec ID                       : S_TEXT/UTF8
Codec ID/Info                  : UTF-8 Plain Text
Duration                       : 7s 464ms
Bit rate                       : 114 bps
Count of elements              : 3
Stream size                    : 107 Bytes (0%)
Title                          : Forced
Language                       : English
Default                        : No
Forced                         : No

Text #4
ID                             : 7
Format                         : UTF-8
Codec ID                       : S_TEXT/UTF8
Codec ID/Info                  : UTF-8 Plain Text
Duration                       : 1h 49mn
Bit rate                       : 62 bps
Count of elements              : 1711
Stream size                    : 50.3 KiB (0%)
Title                          : Full
Language                       : English
Default                        : No
Forced                         : No

Text #5
ID                             : 8
Format                         : UTF-8
Codec ID                       : S_TEXT/UTF8
Codec ID/Info                  : UTF-8 Plain Text
Duration                       : 1h 49mn
Bit rate                       : 70 bps
Count of elements              : 2154
Stream size                    : 56.9 KiB (0%)
Title                          : SDH
Language                       : English
Default                        : No
Forced                         : No

Text #6
ID                             : 9
Format                         : UTF-8
Codec ID                       : S_TEXT/UTF8
Codec ID/Info                  : UTF-8 Plain Text
Duration                       : 1h 49mn
Bit rate                       : 95 bps
Count of elements              : 2154
Stream size                    : 77.1 KiB (0%)
Title                          : SDH-Colored
Language                       : English
Default                        : No
Forced                         : No

Menu
00:00:00.000                   : :1
00:05:37.337                   : :2
00:09:15.472                   : :3
00:14:06.721                   : :4
00:19:40.471                   : :5
00:22:59.003                   : :6
00:27:10.254                   : :7
00:31:37.646                   : :8
00:39:11.975                   : :9
00:43:41.118                   : :10
00:47:46.614                   : :11
00:52:32.191                   : :12
00:59:10.255                   : :13
01:02:00.133                   : :14
01:07:12.070                   : :15
01:09:54.816                   : :16
01:13:11.721                   : :17
01:18:27.453                   : :18
01:22:45.502                   : :19
01:27:51.808                   : :20
01:32:36.718                   : :21
01:39:38.139                   : :22
01:47:20.142                   : :23
01:50:36.713                   : :24
Скріншоти



Джерело: &

Відео для перегляду на 3D обладнанні!


 Трекер:    Зареєстрований   

Завантажити / скачати фільм українською



відео для новачків



 Зареєстрований:   2016-10-13 11:46
 Розмір:   6.83 GB 
 Оцінка фільму:   9.2/10 (Голосів: 10)
   
Marivo 
Новенький


З нами з: 17.09.16
Востаннє: 07.12.16
Повідомлень: 3

2016-10-29 09:43  
Чудова фантастична стрічка.Нічим не поступається першій частині.Рекомендую до перегляду.
Ваш часовий пояс: GMT + 2 Години

Нова тема   Відповісти