Завантажити та скачати торренти українською


Похмурі тіні / Dark Shadows (2012) 720p-mini

Нові коментарі

Нова тема   Відповісти
Автор Повідомлення
Drool 
VIP


З нами з: 17.04.10
Востаннє: 08.12.16
Повідомлень: 1270

2016-10-12 19:56  
Похмурі тіні / Dark Shadows (2012) 720p-mini

Жанр: фентезі, комедія, жахи, мелодрама
Країна: США



Кінокомпанія: Warner Bros. Pictures
Режисер: Тім Бартон
Актори: Джонні Депп, Єва Грін, Хелена Бонем Картер, Хлоя Моретц, Джекі Ерл Хейлі, Крістофер Лі, Ханна Мюррей та інші

Сюжет:
У далекому 1772 році Барнабас Коллінз має все: багатство, владу, величний маєток і серце кожної дівчини свого містечка. Але солодке життя закінчується, коли закохана відьма Анжеліка Бошар, не отримавши взаємності прирікає його на долю, гіршу, ніж сама смерть — обертає на вампіра і ховає живцем. Тепер, два століття потому, Барнабаса випадково звільняють з ув'язнення. Він повертається в маєток Коллінвуд, власником якого колись був, і знаходить його в руїнах. Жалюгідні нащадки його сім'ї збереглися мало чим краще за родове гніздо, і в кожного з них є свої “скелети в шафі”.


Тривалість: 01:53:04
Якість: 720p-mini
Відео:
кодек:
розмір кадру: 1280x720
бітрейт: 3400 кб/с

Аудіо:
мова: українська
переклад: професійний дубльований
кодек: 5.1
бітрейт: 448 кб/с

Субтитри:
мова: українська
тип: програмні (м'які) форсовані
формат: *.srt
MediaInfo
Код:
General
Unique ID                                : 20333073839897276000968329816036333366 (0xF4C01F090742BDC2B93917613C3D736)
Complete name                            : /mnt/router/Torrents/Dark.Shadows.2012.Ukr.Dub..720p-mini.mkv
Format                                   : Matroska
Format version                           : Version 2
File size                                : 3.04 GiB
Duration                                 : 1h 53mn
Overall bit rate                         : 3 849 Kbps
Movie name                               : Похмурі тіні / Dark Shadows (2012) 720p-mini
Encoded date                             : UTC 2013-10-21 13:43:15
Writing application                      : mkvmerge v4.8.0 ('I Got The...') сборка от Aug 22 2011 13:16:28
Writing library                          : libebml v1.2.0 + libmatroska v1.1.0

Video
ID                                       : 1
Format                                   : AVC
Format/Info                              : Advanced Video Codec
Format profile                           : [email protected]
Format settings, CABAC                   : Yes
Format settings, ReFrames                : 8 frames
Codec ID                                 : V_MPEG4/ISO/AVC
Duration                                 : 1h 53mn
Bit rate                                 : 3 400 Kbps
Width                                    : 1 280 pixels
Height                                   : 720 pixels
Display aspect ratio                     : 16:9
Frame rate mode                          : Constant
Frame rate                               : 23.976 fps
Color space                              : YUV
Chroma subsampling                       : 4:2:0
Bit depth                                : 8 bits
Scan type                                : Progressive
Bits/(Pixel*Frame)                       : 0.154
Stream size                              : 2.63 GiB (86%)
Title                                    : Похмурі тіні / Dark Shadows (2012) 720p-mini
Writing library                          : core 120
Encoding settings                        : cabac=1 / ref=8 / deblock=1:-3:-3 / analyse=0x3:0x113 / me=hex / subme=7 / psy=1 / psy_rd=1.00:0.00 / mixed_ref=1 / me_range=16 / chroma_me=1 / trellis=1 / 8x8dct=1 / cqm=0 / deadzone=21,11 / fast_pskip=1 / chroma_qp_offset=-2 / threads=3 / sliced_threads=0 / nr=0 / decimate=1 / interlaced=0 / bluray_compat=0 / constrained_intra=0 / bframes=3 / b_pyramid=2 / b_adapt=2 / b_bias=0 / direct=1 / weightb=1 / open_gop=0 / weightp=2 / keyint=240 / keyint_min=24 / scenecut=40 / intra_refresh=0 / rc_lookahead=50 / rc=2pass / mbtree=1 / bitrate=3400 / ratetol=1.0 / qcomp=0.60 / qpmin=3 / qpmax=69 / qpstep=4 / cplxblur=20.0 / qblur=0.5 / ip_ratio=1.40 / aq=1:1.00
Default                                  : Yes
Forced                                   : No
Color range                              : Limited
Color primaries                          : BT.709
Transfer characteristics                 : BT.709
Matrix coefficients                      : BT.709

Audio
ID                                       : 2
Format                                   : AC-3
Format/Info                              : Audio Coding 3
Mode extension                           : CM (complete main)
Format settings, Endianness              : Big
Codec ID                                 : A_AC3
Duration                                 : 1h 53mn
Bit rate mode                            : Constant
Bit rate                                 : 448 Kbps
Channel(s)                               : 6 channels
Channel positions                        : Front: L C R, Side: L R, LFE
Sampling rate                            : 48.0 KHz
Compression mode                         : Lossy
Delay relative to video                  : -82ms
Stream size                              : 362 MiB (12%)
Title                                    : Рідна мова
Language                                 : Ukrainian
Default                                  : Yes
Forced                                   : No

Text
ID                                       : 3
Format                                   : UTF-8
Codec ID                                 : S_TEXT/UTF8
Codec ID/Info                            : UTF-8 Plain Text
Title                                    : Українські (форсовані)
Language                                 : Ukrainian
Default                                  : Yes
Forced                                   : Yes
Скріншоти






Джерело:
Особиста оцінка: 9 - давно не бачив настільки якісне кіно


 Трекер:    Зареєстрований   

Завантажити / скачати фільм українською



відео для новачків



 Зареєстрований:   2016-10-12 19:56
 Розмір:   3.04 GB 
 Оцінка фільму:   9.7/10 (Голосів: 7)
   
Інші релізи
   Похмурі тіні / Dark Shadows (2012) Jatx_11  7 / 0   1.57 GB   2012-11-22 15:54 
   Похмурі тіні / Dark Shadows (2012) AVC Ukr/Eng | sub Eng AngryBirdsUA  1 / 0   2.55 GB   2012-09-08 06:35 
   Похмурі тіні / Dark Shadows (2012) 1080p Ukr/Eng | Sub Eng 11FrYkT  7 / 0   11.42 GB   2012-09-05 08:40 
   Похмурі тіні / Dark Shadows (2012) Ukr/Eng antik_2008  1 / 0   2.03 GB   2012-09-04 08:36 
   Похмурі тіні / Dark Shadows (2012) 720p Ukr/Eng | Sub Eng 11FrYkT  3 / 0   5.5 GB   2012-09-04 07:31 
SHEVA1991 
Поважний учасник


З нами з: 29.11.12
Востаннє: 03.12.16
Повідомлень: 200

2016-10-12 21:27  
Дякую за реліз! Прикольний фільм!
Drool 
VIP


З нами з: 17.04.10
Востаннє: 08.12.16
Повідомлень: 1270

2016-10-12 22:20  
SHEVA1991 написано:
Дякую за реліз! Прикольний фільм!
Просто звернув увагу, що аналогічний реліз 720p-mini було викинуто в архів через відсутність сідів тривалий час. А цей реліз у мене вже давно, і я його постійно сідую на інших трекерах. От і вирішив залити.
SHEVA1991 
Поважний учасник


З нами з: 29.11.12
Востаннє: 03.12.16
Повідомлень: 200

2016-10-13 08:00  
Drool , посідую я також якнайдовше
Drool 
VIP


З нами з: 17.04.10
Востаннє: 08.12.16
Повідомлень: 1270

2016-10-13 09:55  
Взагалі, погано, що деякі релізери роблять приватні роздачі, їх неможливо викласти на іших трекерах, що б підвищило живучість роздачі.
SHEVA1991 
Поважний учасник


З нами з: 29.11.12
Востаннє: 03.12.16
Повідомлень: 200

2016-10-13 21:22  
Цілком з Вами згодний!
Ваш часовий пояс: GMT + 2 Години

Нова тема   Відповісти