Завантажити та скачати торренти українською


Вулик / The Hive (Сезон 1) (2008) AVC

Нові коментарі

Нова тема   Відповісти
Автор Повідомлення
sergiyko.5 
Попереджень: 1
Попереджень: 1 


З нами з: 25.02.16
Востаннє: 05.12.16
Повідомлень: 479

2016-10-12 11:33  
Вулик / The Hive (Сезон 1) (2008) AVC

Вулик / The Hive (Сезон 1) (2008) AVC

Жанр: Анімація для дітей
Країна: Великобританія, The Hive Enterprises Limited MMX
Режисер: Рей Мерріт

Сюжет / опис фільму:
Вулик став затишною домівкою для багатьох бджолиних сімей.
У ньому ж оселилися і наші герої: мама-бджілка, татко-бджілка та їх невгамовні дітки Баз і Рубі.
Брат і сестричка щодня літають до школи «Медові роси».

А там без пригод ну ніяк: то у гості приїде велична Королева бджіл, то Баз отримає магічний капелюх для здійснення мрій,
а інколи бешкетникам і на горіхи дістається від учителя Жука.



Тривалість: 00:07:20 серія, загалом 78 серій

Відео: кодек: , розмір кадру: 704х400, бітрейт: 600 кб/с
Аудіо: мова: українська, переклад: багатоголосий закадровий, аудіокодек: , бітрейт аудіо: 192 кб/с

Озвучка:
Перелік серій:

01 Листоноша Баз
02 Королівський візит
03 Дитяча кімната
04 Баз-чарівник
05 Налякані бджілки
06 Баз рятівник
07 Бджілки вивчають компьютер
08 День спорту
09 Бджолиний день народження
10 Ведмедик База
...
60
61
62
63
65 Бджолині канікули
67 Бджолина весна
68
69
70 Св'ято вогнів
71 Монстер Джаспере
72 Лорд Бартл і гроза
73 Чи можна підглядати
74 Новий мяч База
75 Самотня бджілка
77
78
Інформація про файл:
General
Complete name : E:\Torrents\Mult\The Hive \S01E01.Postman Buzzbee.mp4
Format : MPEG-4
Format profile : Base Media
Codec ID : isom (isom)
File size : 40.9 MiB
Duration : 7mn 11s
Overall bit rate mode : Variable
Overall bit rate : 796 Kbps
Encoded date : UTC 2016-01-05 19:40:50
Tagged date : UTC 2016-01-05 19:40:50

Video
ID : 1
Format : AVC
Format/Info : Advanced Video Codec
Format profile : [email protected]
Format settings, CABAC : Yes
Format settings, ReFrames : 10 frames
Codec ID : avc1
Codec ID/Info : Advanced Video Coding
Duration : 7mn 10s
Bit rate : 600 Kbps
Maximum bit rate : 1 510 Kbps
Width : 704 pixels
Height : 400 pixels
Display aspect ratio : 16:9
Frame rate mode : Constant
Frame rate : 25.000 fps
Color space : YUV
Chroma subsampling : 4:2:0
Bit depth : 8 bits
Scan type : Progressive
Bits/(Pixel*Frame) : 0.085
Stream size : 30.8 MiB (75%)
Writing library : core 148 r2638 7599210
Encoding settings : cabac=1 / ref=10 / deblock=1:-1:-1 / analyse=0x3:0x113 / me=umh / subme=8 / psy=1 / psy_rd=0.40:0.00 / mixed_ref=1 / me_range=16 / chroma_me=1 / trellis=1 / 8x8dct=1 / cqm=0 / deadzone=21,11 / fast_pskip=1 / chroma_qp_offset=-2 / threads=4 / lookahead_threads=1 / sliced_threads=0 / nr=0 / decimate=1 / interlaced=0 / bluray_compat=0 / constrained_intra=0 / bframes=5 / b_pyramid=2 / b_adapt=2 / b_bias=0 / direct=3 / weightb=1 / open_gop=0 / weightp=2 / keyint=250 / keyint_min=25 / scenecut=40 / intra_refresh=0 / rc_lookahead=50 / rc=2pass / mbtree=1 / bitrate=600 / ratetol=1.0 / qcomp=0.60 / qpmin=0 / qpmax=69 / qpstep=4 / cplxblur=20.0 / qblur=0.5 / vbv_maxrate=12500 / vbv_bufsize=12500 / nal_hrd=none / filler=0 / ip_ratio=1.40 / aq=1:0.60
Encoded date : UTC 2016-01-05 19:39:55
Tagged date : UTC 2016-01-05 19:40:51

Audio
ID : 2
Format :
Format/Info : Advanced Audio Codec
Format profile : LC
Codec ID : 40
Duration : 7mn 11s
Bit rate mode : Variable
Bit rate : 192 Kbps
Maximum bit rate : 201 Kbps
Channel(s) : 2 channels
Channel positions : Front: L R
Sampling rate : 48.0 KHz
Frame rate : 46.875 fps (1024 spf)
Compression mode : Lossy
Stream size : 9.87 MiB (24%)
Title : 2.0ch 192kbps
Language : Ukrainian
Encoded date : UTC 2016-01-05 19:27:15
Tagged date : UTC 2016-01-05 19:40:51
Скріншоти:


Автор запису та ріпу: sergiyko


Бронзовий реліз (на рейтинг впливає 75% завантаженого)
 Трекер:    Зареєстрований   

Завантажити / скачати мультфільм українською



відео для новачків



 Зареєстрований:   2016-10-12 11:33
 Розмір:   3.1 GB 
 Оцінка мультсеріалу:   10/10 (Голосів: 4)
   
Ваш часовий пояс: GMT + 2 Години

Нова тема   Відповісти