Завантажити та скачати торренти українською


Прибульці 2. Коридор часу / Les couloirs du temps: Les visiteurs II (1998) 720p 2xUkr/Fre | Sub Eng/Fre

Нові коментарі

Нова тема   Відповісти
Автор Повідомлення
Anonymous 







2016-10-11 19:46  
Прибульці 2. Коридор часу / Les couloirs du temps: Les visiteurs II (1998) 720p 2xUkr/Fre | Sub Eng/Fre

Прибульці 2. Коридор часу / Les couloirs du temps: Les visiteurs II (1998) 720p 2xUkr/Fre | Sub Eng/Fre


Жанр: комедія, фентезі
Країна: Франція



Кінокомпанія: Gaumont, CineComic, France 3 Cinéma, Canal+, Conseil Général de la Dordogne, Centre National de la Cinématographie (CNC)
Режисер: Жан-Марі Пуаре / Jean-Marie Poire
Актори: Крістіан Клав'є / Christian Clavier, [url=Жан Рено / Jean Reno]Жан Рено / Jean Reno[/url], Мюріель Робен / Muriel Robin, Марі-Анн Шазель / Marie-Anne Chazel Жан-Люк Карон / Jean-Luc Caron, Патрик Бюржель / Patrick Burgel, Ерік Аверлан / Eric Averlant, Армель / Armelle та інші

Сюжет:
Прибульці з минулого (Рено і Клавьє) повертаються в майбутнє за украденими коштовностями і реліквіями, інакше одному з них не вдасться одружитися. В теперішньому вони знову потрапляють у низку безглуздих та смішних пригод.


Тривалість: 01:57:25
Якість: 720p [EbP]
Відео:
кодек:
розмір кадру: 1280 х 546
бітрейт: 7804 Кбіт/с [crf=16.6]

Аудіо # 1: &
мова: українська
переклад: двоголосий закадровий
кодек: 2.0
бітрейт: 192 Кбіт/с

Аудіо # 2:
мова: українська
переклад: багатоголосий закадровий
кодек: 2.0
бітрейт: 192 Кбіт/с

Аудіо # 3:
мова: французька
переклад: оригінал
кодек: 5.1
бітрейт: 640 Кбіт/с

Субтитри #1:
мова: англійська
тип: програмні (м'які)
формат: *.srt

Субтитри #2:
мова: французька
тип: програмні (м'які)
формат: *.srt

Збережено оригінальні розділи, як на Blu-ray.
MediaInfo
Код:
Complete name               : Les couloirs du temps - Les visiteurs II (1998) [2xUkr,Fre sub.Eng,Fre] 720p [Hurtom].mkv
Format                      : Matroska
Format version              : Version 4 / Version 2
File size                   : 7.24 GiB
Duration                    : 1 h 57 min
Overall bit rate            : 8 831 kb/s
Movie name                  : Прибульці 2. Коридор часу / Les couloirs du temps: Les visiteurs II (1998) [2xUkr,Fre sub.Eng,Fre] 720p [Hurtom] by igor911
Released date               : 1998
Cover                       : Yes
Comment                     : http://www.imdb.com/title/tt0120882/
Attachments                 : cover.jpg
ARTIST                      : Крістіан Клав'є / Christian Clavier, Жан Рено / Jean Reno, Мюріель Робен / Muriel Robin, Марі-Анн Шазель / Marie-Anne Chazel Жан-Люк Карон / Jean-Luc Caron, Патрик Бюржель / Patrick Burgel, Ерік Аверлан / Eric Averlant, Армель / Armelle та інші
DIRECTOR                    : Жан-Марі Пуаре / Jean-Marie Poire
GENRE                       : комедія, фентезі
SYNOPSIS                    : Прибульці з минулого (Рено і Клавьє) повертаються в майбутнє за украденими коштовностями і реліквіями, інакше одному з них не вдасться одружитися. В теперішньому вони знову потрапляють у низку безглуздих та смішних пригод.
Url                         : https://toloka.to/t76622

Video
ID                          : 1
Format                      : AVC
Format/Info                 : Advanced Video Codec
Format profile              : [email protected]
Format settings, CABAC      : Yes
Format settings, ReFrames   : 11 frames
Codec ID                    : V_MPEG4/ISO/AVC
Duration                    : 1 h 57 min
Bit rate                    : 7 804 kb/s
Width                       : 1 280 pixels
Height                      : 546 pixels
Display aspect ratio        : 2.35:1
Frame rate mode             : Constant
Frame rate                  : 24.000 FPS
Color space                 : YUV
Chroma subsampling          : 4:2:0
Bit depth                   : 8 bits
Scan type                   : Progressive
Bits/(Pixel*Frame)          : 0.465
Stream size                 : 6.40 GiB (88%)
Title                       : Прибульці 2. Коридор часу / Les couloirs du temps: Les visiteurs II (1998) 720p [EbP]
Writing library             : core 142 r2431+42 c69a006 tMod [[email protected]:2:0 X86_64]
Encoding settings           : cabac=1 / ref=11 / deblock=1:-3:-3 / analyse=0x3:0x133 / me=umh / subme=10 / psy=1 / fade_compensate=0.00 / psy_rd=1.00:0.00 / mixed_ref=1 / me_range=32 / chroma_me=1 / trellis=2 / 8x8dct=1 / cqm=0 / deadzone=21,11 / fast_pskip=0 / chroma_qp_offset=-2 / threads=12 / lookahead_threads=2 / sliced_threads=0 / nr=0 / decimate=0 / interlaced=0 / bluray_compat=0 / constrained_intra=0 / fgo=0 / bframes=9 / b_pyramid=2 / b_adapt=2 / b_bias=0 / direct=3 / weightb=1 / open_gop=0 / weightp=2 / keyint=250 / keyint_min=24 / scenecut=40 / intra_refresh=0 / rc_lookahead=60 / rc=crf / mbtree=0 / crf=16.6000 / qcomp=0.60 / qpmin=0:0:0 / qpmax=69:69:69 / qpstep=4 / vbv_maxrate=50000 / vbv_bufsize=62500 / crf_max=0.0 / nal_hrd=none / filler=0 / ip_ratio=1.35 / pb_ratio=1.25 / aq=3:0.77 / aq-sensitivity=10.00 / aq-factor=1.00:1.00:1.00 / aq2=0 / aq3=0
Language                    : French
Default                     : Yes
Forced                      : No

Audio #1
ID                          : 2
Format                      : AC-3
Format/Info                 : Audio Coding 3
Mode extension              : CM (complete main)
Format settings, Endianness : Big
Codec ID                    : A_AC3
Duration                    : 1 h 57 min
Bit rate mode               : Constant
Bit rate                    : 192 kb/s
Channel(s)                  : 2 channels
Channel positions           : Front: L R
Sampling rate               : 48.0 kHz
Frame rate                  : 31.250 FPS (1536 spf)
Compression mode            : Lossy
Stream size                 : 161 MiB (2%)
Title                       : DVO [2+2] 2.0 192 Kbps [Hurtom-taraskill1]
Language                    : Ukrainian
Default                     : Yes
Forced                      : No

Audio #2
ID                          : 3
Format                      : AC-3
Format/Info                 : Audio Coding 3
Mode extension              : CM (complete main)
Format settings, Endianness : Big
Codec ID                    : A_AC3
Duration                    : 1 h 57 min
Bit rate mode               : Constant
Bit rate                    : 192 kb/s
Channel(s)                  : 2 channels
Channel positions           : Front: L R
Sampling rate               : 48.0 kHz
Frame rate                  : 31.250 FPS (1536 spf)
Compression mode            : Lossy
Stream size                 : 161 MiB (2%)
Title                       : MVO [ICTV] 2.0 192 Kbps [Hurtom-_oles,DareDevil96,4erkov]
Language                    : Ukrainian
Default                     : No
Forced                      : No

Audio #3
ID                          : 4
Format                      : AC-3
Format/Info                 : Audio Coding 3
Mode extension              : CM (complete main)
Format settings, Endianness : Big
Codec ID                    : A_AC3
Duration                    : 1 h 57 min
Bit rate mode               : Constant
Bit rate                    : 640 kb/s
Channel(s)                  : 6 channels
Channel positions           : Front: L C R, Side: L R, LFE
Sampling rate               : 48.0 kHz
Frame rate                  : 31.250 FPS (1536 spf)
Compression mode            : Lossy
Stream size                 : 538 MiB (7%)
Title                       : Original, 5.1 640 Kbps
Language                    : French
Default                     : No
Forced                      : No

Text #1
ID                          : 5
Format                      : UTF-8
Codec ID                    : S_TEXT/UTF8
Codec ID/Info               : UTF-8 Plain Text
Duration                    : 1 h 56 min
Bit rate                    : 52 b/s
Count of elements           : 1665
Stream size                 : 44.8 KiB (0%)
Language                    : English
Default                     : No
Forced                      : No

Text #2
ID                          : 6
Format                      : UTF-8
Codec ID                    : S_TEXT/UTF8
Codec ID/Info               : UTF-8 Plain Text
Duration                    : 1 h 57 min
Bit rate                    : 74 b/s
Count of elements           : 2334
Stream size                 : 64.3 KiB (0%)
Language                    : French
Default                     : No
Forced                      : No

Menu
00:00:00.000                : en:00:00:00.000
00:10:07.875                : en:00:10:07.875
00:20:41.042                : en:00:20:41.042
00:30:29.917                : en:00:30:29.917
00:41:55.375                : en:00:41:55.375
00:52:34.583                : en:00:52:34.583
01:01:45.625                : en:01:01:45.625
01:12:58.792                : en:01:12:58.792
01:20:03.000                : en:01:20:03.000
01:29:17.500                : en:01:29:17.500
01:38:33.083                : en:01:38:33.083
01:50:09.125                : en:01:50:09.125
Оригінал <----------> Ріп





Джерело: &
Подяка за створення українських доріжок п.taraskill1 (зведення 2+2), п.4erkov, п.DareDevil96 (запис з ТБ)



ЗАЛИШАЙТЕСЬ ЯКОМОГА ДОВШЕ НА РОЗДАЧІ!
СКАЧАВ САМ - ДАЙ СКАЧАТИ ІНШИМ


Срібний реліз (на рейтинг впливає 50% завантаженого)
 Трекер:    Зареєстрований   

Завантажити / скачати фільм українською



відео для новачків



 Зареєстрований:   2016-10-11 20:44
 Розмір:   7.24 GB 
 Оцінка фільму:   2.5/10 (Голосів: 12)
   
Deiv 
Частий відвідувач


З нами з: 15.07.16
Востаннє: 06.12.16
Повідомлень: 28

2016-10-11 23:13  
А 1080p зробиш. Дякую. Це скарбниця французького кінематографу . І першу частину вельми прошу зроби.
Anonymous 







2016-10-11 23:30  
Deiv, нажаль, 1080p робити не буду.
Нікому то не треба:
igor911 написано:
Завантажили: [ 1 ]
Подякували: 0

Deiv 
Частий відвідувач


З нами з: 15.07.16
Востаннє: 06.12.16
Повідомлень: 28

2016-10-12 16:14  
Шкода .Якщо зараз ніхто не завантажив, це не означає що його не будуть качати в майбутньому.
Anonymous 







2016-10-12 17:01  
Deiv, можливо будуть, але в мене обмаль вільного місця на HDD, щоб робити релізи фільмів у всіх можливих якостях (ріпи та ремукс) для постійної підтримки. Пріорітет для старих чи фільмів не для всіх - хоча б один реліз у HD якості. Особисто я більшість контенту дивлюсь у 720р на 32" телеку.
Deiv 
Частий відвідувач


З нами з: 15.07.16
Востаннє: 06.12.16
Повідомлень: 28

2016-10-12 17:28  
Краще роби один HD реліз з 1080p ,особливо класику французького кіно .Фільми з Луї де Фюнесом,Фернанделем ,Крістіаном Клав'є,Жераром Філіпом.Аленом Делоном,П'єром Рішаром я підтримаю завжди .Будь які фільми з цими акторами в мене будуть в колекції, і кому захочется подивитись я з задоволенням їх роздам . В наш час коли маємо швидкісний інтернет та HD накопичувачі це не проблема.
Anonymous 







2016-10-12 18:00  
Deiv, конкретно по цьому фільму - різниця 1080р +8 Гб (19 Гб на клабі) якраз з'їсть місце під ще один реліз. В якості різниці в себе на 32" я не бачу, особливо на старих зернистих та "шумних" фільмах. Та з нових фільмів дуже мало знімається з доброю деталізацією, яку видно у 1080, тому це більше наслідок роботи маркетологів.

Додано через 1 хвилину 21 секунду:

Так, з НДД проблем немає, є проблема з грошима на їх придбання Happy

Deiv 
Частий відвідувач


З нами з: 15.07.16
Востаннє: 06.12.16
Повідомлень: 28

2016-10-12 18:22  
Дивись сам . В мене є декілька фільмів завантажених з Луї де Фюнесом в Blu Ray , так зернитість є але все ж краще ніж 720p .Дивится такі фільми одне задоволення . І ще буде час онови голий пістолет з Леслі Нільсеном , хоч в 720 буду щиро вдячним.
Ваш часовий пояс: GMT + 2 Години

Нова тема   Відповісти