Завантажити та скачати торренти українською


Джульєтта / Julieta (2016) 720p Ukr/Spa | Sub Eng

Нові коментарі

Нова тема   Відповісти
Автор Повідомлення
Anonymous 







2016-10-10 21:35  
Джульєтта / Julieta (2016) 720p Ukr/Spa | Sub Eng

Джульєтта / Julieta (2016) 720p Ukr/Spa | Sub Eng

Альтернативний постер


повнорозмірні зображення відкриються по кліку (з натиснутим CTRL чи кліком середньою кнопкою мишки - у новій вкладці)


Жанр: драма
Країна: Іспанія



Кінокомпанія: Canal+ France, Ciné +, Deseo, Televisión Española (TVE)
Режисер: Педро Альмодовар / Pedro Almodóvar
Актори: Адріана Угарте / Adriana Ugarte, Мішель Хеннер / Michelle Jenner, Россі де Пальма / Rossy de Palma, Інма Куеста / Inma Cuesta, Даніель Грао / Daniel Grao, Емма Суарез / Emma Suárez, Даріо Грандінетті / Darío Grandinetti, Пілар Кастро / Pilar Castro, Наталі Поза / Nathalie Poza, Августин Альмодовар / Agustín Almodóvar та інші

Сюжет:
Дочка Джульєтти таємничим чином зникає. У спробі відшукати її сліди, жінка повертається до свого колишнього помешкання у Мадриді, де згадує бурхливу юність, любов і страшну трагедію, яка віддалила її від дочки. Привид минулого мучить її донині.


український трейлер


Рейтинг MPAA: R - особам до 17 років обов'язкова присутність батьків або дорослого опікуна
Вікова категорія: 16+

Тривалість: 01:38:37
Якість: 720p [DON]
Відео:
кодек:
розмір кадру: 1280 х 690
бітрейт: 6482 Кбіт/с [crf=15.9]

Аудіо # 1:
мова: українська
переклад: багатоголосий закадровий
кодек: 2.0
бітрейт: 192 Кбіт/с

Аудіо # 2:
мова: іспанська
переклад: оригінал
кодек: 5.1
бітрейт: 640 Кбіт/с

Субтитри:
мова: англійська
тип: програмні (м'які)
формат: *.srt

Збережено оригінальні розділи, як на Blu-ray.
MediaInfo
Код:
Complete name               : Julieta (2016) [Ukr,Spa sub.Eng] 720p [Hurtom].mkv
Format                      : Matroska
Format version              : Version 4 / Version 2
File size                   : 5.04 GiB
Duration                    : 1 h 38 min
Overall bit rate            : 7 316 kb/s
Movie name                  : Джульєтта / Julieta (2016) [Ukr,Spa sub.Eng] 720p [Hurtom] by igor911
Released date               : 2016
Cover                       : Yes
Comment                     : http://www.imdb.com/title/tt4326444/
Attachments                 : cover.jpg
ARTIST                      : Адріана Угарте / Adriana Ugarte, Мішель Хеннер / Michelle Jenner, Россі де Пальма / Rossy de Palma, Інма Куеста / Inma Cuesta, Даніель Грао / Daniel Grao, Емма Суарез / Emma Suárez, Даріо Грандінетті / Darío Grandinetti, Пілар Кастро / Pilar Castro, Наталі Поза / Nathalie Poza, Августин Альмодовар / Agustín Almodóvar та інші
DIRECTOR                    : Педро Альмодовар / Pedro Almodóvar
GENRE                       : драма
SYNOPSIS                    : Дочка Джульєтти таємничим чином зникає. У спробі відшукати її сліди, жінка повертається до свого колишнього помешкання у Мадриді, де згадує бурхливу юність, любов і страшну трагедію, яка віддалила її від дочки. Привид минулого мучить її донині.
Url                         : https://toloka.to/t76609

Video
ID                          : 1
Format                      : AVC
Format/Info                 : Advanced Video Codec
Format profile              : [email protected]
Format settings, CABAC      : Yes
Format settings, ReFrames   : 9 frames
Codec ID                    : V_MPEG4/ISO/AVC
Duration                    : 1 h 38 min
Bit rate                    : 6 482 kb/s
Width                       : 1 280 pixels
Height                      : 690 pixels
Display aspect ratio        : 1.85:1
Frame rate mode             : Constant
Frame rate                  : 24.000 FPS
Color space                 : YUV
Chroma subsampling          : 4:2:0
Bit depth                   : 8 bits
Scan type                   : Progressive
Bits/(Pixel*Frame)          : 0.306
Stream size                 : 4.46 GiB (89%)
Title                       : Джульєтта / Julieta (2016) 720p [DON]
Writing library             : core 148 r2705+54 9f484c1 t_mod_Custom [[email protected] X86_64]
Encoding settings           : cabac=1 / ref=9 / deblock=1:-3:-3 / analyse=0x3:0x133 / me=umh / subme=10 / psy=1 / fade_compensate=0.00 / psy_rd=1.00:0.00 / mixed_ref=1 / me_range=32 / chroma_me=1 / trellis=2 / 8x8dct=1 / cqm=0 / deadzone=21,11 / fast_pskip=0 / chroma_qp_offset=-2 / threads=8 / lookahead_threads=1 / sliced_threads=0 / nr=0 / decimate=0 / interlaced=0 / bluray_compat=0 / constrained_intra=0 / fgo=0 / bframes=8 / b_pyramid=2 / b_adapt=2 / b_bias=0 / direct=3 / weightb=1 / open_gop=0 / weightp=2 / keyint=250 / keyint_min=24 / scenecut=40 / intra_refresh=0 / rc_lookahead=150 / rc=crf / mbtree=0 / crf=15.9000 / qcomp=0.65 / qpmin=0:0:0 / qpmax=69:69:69 / qpstep=4 / vbv_maxrate=62500 / vbv_bufsize=78125 / crf_max=0.0 / nal_hrd=none / filler=0 / ip_ratio=1.30 / pb_ratio=1.20 / aq=1:0.75 / aq-sensitivity=10.00 / aq-factor=1.00:1.00:1.00 / aq2=0 / aq3=0 / zones=845,2272,crf=12.9/55782,55811,crf=12.9/124895,125000,crf=12.9
Language                    : English
Default                     : Yes
Forced                      : No
Color range                 : Limited
Matrix coefficients         : BT.709

Audio #1
ID                          : 2
Format                      : AC-3
Format/Info                 : Audio Coding 3
Mode extension              : CM (complete main)
Format settings, Endianness : Big
Codec ID                    : A_AC3
Duration                    : 1 h 38 min
Bit rate mode               : Constant
Bit rate                    : 192 kb/s
Channel(s)                  : 2 channels
Channel positions           : Front: L R
Sampling rate               : 48.0 kHz
Frame rate                  : 31.250 FPS (1536 spf)
Compression mode            : Lossy
Stream size                 : 135 MiB (3%)
Title                       : MVO, 2.0 192 Kbps [Hurtom]
Language                    : Ukrainian
Default                     : Yes
Forced                      : No

Audio #2
ID                          : 3
Format                      : AC-3
Format/Info                 : Audio Coding 3
Mode extension              : CM (complete main)
Format settings, Endianness : Big
Codec ID                    : A_AC3
Duration                    : 1 h 38 min
Bit rate mode               : Constant
Bit rate                    : 640 kb/s
Channel(s)                  : 6 channels
Channel positions           : Front: L C R, Side: L R, LFE
Sampling rate               : 48.0 kHz
Frame rate                  : 31.250 FPS (1536 spf)
Compression mode            : Lossy
Stream size                 : 451 MiB (9%)
Title                       : Original, 5.1 640 Kbps
Language                    : Spanish
Default                     : No
Forced                      : No

Text
ID                          : 4
Format                      : UTF-8
Codec ID                    : S_TEXT/UTF8
Codec ID/Info               : UTF-8 Plain Text
Duration                    : 1 h 32 min
Bit rate                    : 54 b/s
Count of elements           : 1055
Stream size                 : 36.8 KiB (0%)
Language                    : English
Default                     : No
Forced                      : No

Menu
00:00:00.000                : en:Chapter 1
00:11:08.375                : en:Chapter 2
00:25:18.458                : en:Chapter 3
00:38:46.042                : en:Chapter 4
00:50:14.083                : en:Chapter 5
01:02:45.125                : en:Chapter 6
01:15:14.375                : en:Chapter 7
01:28:20.542                : en:Chapter 8


Джерело: &
Подяка AngryBirdsUA та Hanway'ю за українську доріжку

Український звук придбано завдяки темі "Контент для придбання"


ЗАЛИШАЙТЕСЬ ЯКОМОГА ДОВШЕ НА РОЗДАЧІ!
СКАЧАВ САМ - ДАЙ СКАЧАТИ ІНШИМ


 Трекер:    Зареєстрований   

Завантажити / скачати фільм українською



відео для новачків



 Зареєстрований:   2016-10-10 23:03
 Розмір:   5.04 GB 
 Оцінка фільму:   6.3/10 (Голосів: 27)
   
Інші релізи
   Джульєтта / Julieta (2016) AngryBirdsUA  29 / 0   1.45 GB   2016-10-10 20:00 
bot 
робот


З нами з: 30.09.07
Востаннє: 26.05.05
Повідомлень: 15985

2016-10-10 23:00  
Тему перенесено з Анонси релізів до форуму Фільми в HD


igor911

waldi-hurtom 
VIP


З нами з: 07.10.12
Востаннє: 03.12.16
Повідомлень: 611

2016-10-15 13:56  
Фільм для дорослих. 10 з 10. Естафета триває. Дякую за реліз!
olthik 
Частий відвідувач


З нами з: 02.03.16
Востаннє: 03.12.16
Повідомлень: 33

2016-10-22 11:35  
Фільм сподобався. Гарна життєва мелодрама, з сімейними обставинами, які трапляються в багатьох родинах. Гарні актори, іспанські краєвиди. Рекомендую до перегляду.
Ваш часовий пояс: GMT + 2 Години

Нова тема   Відповісти