Завантажити та скачати торренти українською


Великі канікули (The Exchange Student) / Les Grandes Vacances (1967) 1080p Ukr/Fre | Sub Eng/Ger

Нові коментарі

Нова тема   Відповісти
Автор Повідомлення
Anonymous 







2016-10-09 14:47  
Великі канікули / Les Grandes Vacances / The Exchange Student (1967) 1080p Ukr/Fre | Sub Eng/Ger



Жанр: комедія
Країна: Франція, Італія



Кінокомпанія: Les Films Copernic, Ascot, Cineraid
Режисер: Жан Жиро / Jean Girault
Актори: Луї де Фюнес / Louis de Funes, Франсуа Лечче / François Leccia, Олів'є де Фюнес / Olivier De Funès, Ферді Майн / Ferdy Mayne, Клод Жансак / Claude Gensac, Гі Гроссо / Guy Grosso, Моріс Ріш / Maurice Risch, Мартіна Келлі / Martine Kelly, Маріо Давід / Mario David, Жак Динам / Jacques Dynam, Домінік Даврей / Dominique Davray, Макс Монтаван / Max Montavon та інші

Сюжет:
У амбіційного директора школи Шарля Боско - два сина. Старший, Філліп - відмінний компанійський хлопець, тільки трошки двієчник. І молодший Жерар - татковий синок - стукач, лицемір і підлиза. У канікули за задумом тата старший повинен відправитися у нудну поїздку до Лондона - вчити англійську мову, а молодший - скласти компанію юній англійці у Франції. Філліп з друзями відправляється в подорож на яхті по Сені, а замість себе делегує в Лондон однокласника Стефана Мішона. Юна леді Мак Фаррелл замість огляду музейних пам'яток Парижа віддає перевагу компанії школярів-моряків. Ситуація з педагогічно правильним відпочинком виходить з-під контролю пильних батьків. Рятуючись від розлючених татусів, юні закохані тікають до Шотландії. Там, згідно з давнім звичаєм юні закохані можуть поєднуватися законним шлюбом, всупереч волі батьків! Який шок, яке випробування для татка-директора!


Тривалість: 01:29:56
Якість: 1080p
Відео:
кодек:
розмір кадру: 1920 х 820
бітрейт: 16,5 Мбіт/с

Аудіо # 1:
мова: українська
переклад: двоголосий закадровий
ролі озвучили: Андрій Твердак і Лідія Муращенко
кодек: 2.0
бітрейт: 192 Кбіт/с

Аудіо # 2:
мова: французька
переклад: оригінал
кодек: FLAC 2.0
бітрейт: 331 Кбіт/с

Субтитри #1:
мова: французька (форсовані)
тип: програмні (м'які)
формат: *.srt

Субтитри #2-3:
мова: англійська, німецька
тип: програмні (м'які)
формат: *.srt

Збережено оригінальні розділи, як на Blu-ray.
MediaInfo
Код:
Complete name               : Les Grandes Vacances (1967) [Ukr,Fre sub.Eng,Ger] 1080p [Hurtom].mkv
Format                      : Matroska
Format version              : Version 4 / Version 2
File size                   : 10.7 GiB
Duration                    : 1 h 29 min
Overall bit rate mode       : Variable
Overall bit rate            : 17.0 Mb/s
Movie name                  : Великі канікули / Les Grandes Vacances / The Exchange Student (1967) [Ukr,Fre sub.Eng,Ger] 1080p [HDClub & Hurtom by igor911]
Released date               : 1967
Cover                       : Yes
Comment                     : http://www.imdb.com/title/tt0060475/
Attachments                 : cover.jpg
ARTIST                      : Луї де Фюнес / Louis de Funes, Франсуа Лечче / François Leccia, Олів'є де Фюнес / Olivier De Funès, Ферді Майн / Ferdy Mayne, Клод Жансак / Claude Gensac, Гі Гроссо / Guy Grosso, Моріс Ріш / Maurice Risch, Мартіна Келлі / Martine Kelly, Маріо Давід / Mario David, Жак Динам / Jacques Dynam, Домінік Даврей / Dominique Davray, Макс Монтаван / Max Montavon та інші
DIRECTOR                    : Жан Жиро / Jean Girault
GENRE                       : комедія
SYNOPSIS                    : У амбіційного директора школи Шарля Боско - два сина. Старший, Філліп - відмінний компанійський хлопець, тільки трошки двієчник. І молодший Жерар - татковий синок - стукач, лицемір і підлиза. У канікули за задумом тата старший повинен відправитися у нудну поїздку до Лондона - вчити англійську мову, а молодший - скласти компанію юній англійці у Франції. Філліп з друзями відправляється в подорож на яхті по Сені, а замість себе делегує в Лондон однокласника Стефана Мішона. Юна леді Мак Фаррелл замість огляду музейних пам'яток Парижа віддає перевагу компанії школярів-моряків. Ситуація з педагогічно правильним відпочинком виходить з-під контролю пильних батьків. Рятуючись від розлючених татусів, юні закохані тікають до Шотландії. Там, згідно з давнім звичаєм юні закохані можуть поєднуватися законним шлюбом, всупереч волі батьків! Який шок, яке випробування для татка-директора!
Url                         : https://toloka.to/t76558

Video
ID                          : 1
Format                      : AVC
Format/Info                 : Advanced Video Codec
Format profile              : [email protected]
Format settings, CABAC      : Yes
Format settings, ReFrames   : 5 frames
Codec ID                    : V_MPEG4/ISO/AVC
Duration                    : 1 h 29 min
Bit rate                    : 16.5 Mb/s
Width                       : 1 920 pixels
Height                      : 820 pixels
Display aspect ratio        : 2.35:1
Frame rate mode             : Constant
Frame rate                  : 24.000 FPS
Color space                 : YUV
Chroma subsampling          : 4:2:0
Bit depth                   : 8 bits
Scan type                   : Progressive
Bits/(Pixel*Frame)          : 0.437
Stream size                 : 10.4 GiB (97%)
Title                       : Великі канікули / Les Grandes Vacances / The Exchange Student (1967) 1080p [HDClub-SbR]
Writing library             : core 148 r2705+54 9f484c1 t_mod_Custom [[email protected] X86_64]
Encoding settings           : cabac=1 / ref=5 / deblock=1:-3:-3 / analyse=0x3:0x133 / me=umh / subme=10 / psy=1 / fade_compensate=0.00 / psy_rd=1.05:0.05 / mixed_ref=1 / me_range=24 / chroma_me=1 / trellis=2 / 8x8dct=1 / cqm=0 / deadzone=21,11 / fast_pskip=1 / chroma_qp_offset=-3 / threads=6 / lookahead_threads=1 / sliced_threads=0 / nr=0 / decimate=1 / interlaced=0 / bluray_compat=0 / constrained_intra=0 / fgo=0 / bframes=8 / b_pyramid=2 / b_adapt=2 / b_bias=0 / direct=3 / weightb=1 / open_gop=0 / weightp=2 / keyint=250 / keyint_min=24 / scenecut=40 / intra_refresh=0 / rc=2pass / mbtree=0 / bitrate=16500 / ratetol=1.0 / qcomp=0.65 / qpmin=0:0:0 / qpmax=69:69:69 / qpstep=4 / cplxblur=20.0 / qblur=0.5 / ip_ratio=1.30 / pb_ratio=1.20 / aq=1:0.65 / aq-sensitivity=10.00 / aq-factor=1.00:1.00:1.00 / aq2=0 / aq3=0
Language                    : English
Default                     : Yes
Forced                      : No
Color range                 : Limited
Matrix coefficients         : BT.709

Audio #1
ID                          : 2
Format                      : AC-3
Format/Info                 : Audio Coding 3
Mode extension              : CM (complete main)
Format settings, Endianness : Big
Codec ID                    : A_AC3
Duration                    : 1 h 29 min
Bit rate mode               : Constant
Bit rate                    : 192 kb/s
Channel(s)                  : 2 channels
Channel positions           : Front: L R
Sampling rate               : 48.0 kHz
Frame rate                  : 31.250 FPS (1536 spf)
Compression mode            : Lossy
Stream size                 : 124 MiB (1%)
Title                       : DVO [1+1] 2.0 192 Kbps [Hurtom-RB26DETT,Romario_O]
Language                    : Ukrainian
Default                     : Yes
Forced                      : No

Audio #2
ID                          : 3
Format                      : FLAC
Format/Info                 : Free Lossless Audio Codec
Codec ID                    : A_FLAC
Duration                    : 1 h 29 min
Bit rate mode               : Variable
Bit rate                    : 331 kb/s
Channel(s)                  : 2 channels
Channel positions           : Front: L R
Sampling rate               : 48.0 kHz
Frame rate                  : 11.719 FPS (4096 spf)
Bit depth                   : 16 bits
Stream size                 : 213 MiB (2%)
Title                       : Original, FLAC 2.0 331 Kbps
Writing library             : libFLAC 1.2.1 (UTC 2007-09-17)
Language                    : French
Default                     : No
Forced                      : No

Text #1
ID                          : 4
Format                      : UTF-8
Codec ID                    : S_TEXT/UTF8
Codec ID/Info               : UTF-8 Plain Text
Duration                    : 1 h 20 min
Bit rate                    : 3 b/s
Count of elements           : 66
Stream size                 : 2.03 KiB (0%)
Title                       : French forced
Language                    : French
Default                     : No
Forced                      : No

Text #2
ID                          : 5
Format                      : UTF-8
Codec ID                    : S_TEXT/UTF8
Codec ID/Info               : UTF-8 Plain Text
Duration                    : 1 h 26 min
Bit rate                    : 37 b/s
Count of elements           : 612
Stream size                 : 23.8 KiB (0%)
Title                       : Eng full
Language                    : English
Default                     : No
Forced                      : No

Text #3
ID                          : 6
Format                      : UTF-8
Codec ID                    : S_TEXT/UTF8
Codec ID/Info               : UTF-8 Plain Text
Duration                    : 1 h 26 min
Bit rate                    : 49 b/s
Count of elements           : 926
Stream size                 : 31.8 KiB (0%)
Title                       : Ger full
Language                    : German
Default                     : No
Forced                      : No

Menu
00:00:00.000                : en:Chapter 1
00:08:21.542                : en:Chapter 2
00:15:07.417                : en:Chapter 3
00:21:12.042                : en:Chapter 4
00:28:59.250                : en:Chapter 5
00:35:36.750                : en:Chapter 6
00:41:44.833                : en:Chapter 7
00:49:13.875                : en:Chapter 8
00:57:13.083                : en:Chapter 9
01:03:25.792                : en:Chapter 10
01:10:17.125                : en:Chapter 11
01:18:05.375                : en:Chapter 12
Оригінал <----------> Ріп







Джерело: &
Подяка за українську доріжку RB26DETT (зведення) та Romario_O (запис з ТБ), а також Тиріку за постер

ЗАЛИШАЙТЕСЬ ЯКОМОГА ДОВШЕ НА РОЗДАЧІ!
СКАЧАВ САМ - ДАЙ СКАЧАТИ ІНШИМ


Срібний реліз (на рейтинг впливає 50% завантаженого)
 Трекер:    Зареєстрований   

Завантажити / скачати фільм українською



відео для новачків



 Зареєстрований:   2016-10-09 15:21
 Розмір:   10.7 GB 
 Оцінка фільму:   2.5/10 (Голосів: 12)
   
bot 
робот


З нами з: 30.09.07
Востаннє: 26.05.05
Повідомлень: 16031

2016-10-09 15:20  
Тему перенесено з Анонси релізів до форуму Фільми в HD


igor911

Anonymous 







2016-10-09 16:13  
За два тижні видялю файл в себе з компа.
Ваш часовий пояс: GMT + 2 Години

Нова тема   Відповісти