Завантажити та скачати торренти українською


День незалежності 2: Відродження / Independence Day: Resurgence (2016) AVC Ukr/Eng | Sub Ukr/Eng

Нові коментарі

Нова тема   Відповісти
Автор Повідомлення
Anonymous 







2016-10-08 19:45  
День незалежності 2: Відродження / Independence Day: Resurgence (2016) AVC Ukr/Eng | Sub Ukr/Eng

День незалежності 2: Відродження / Independence Day: Resurgence (2016) AVC Ukr/Eng | Sub Ukr/Eng


Жанр: фантастика, бойовик, пригодницький
Країна: США



Кінокомпанія: Centropolis Entertainment, Stereo D, Twentieth Century Fox
Режисер: Роланд Еммеріх / Roland Emmerich
Актори: Ліам Гемсворт / Liam Hemsworth, Джефф Ґолдблюм / Jeff Goldblum, Білл Пуллман / Bill Pullman, Майка Монро / Maika Monroe, Джої Кінґ / Joey King, Вільям Фіхтнер / William Fichtner, Шарлотта Ґенсбурґ / Charlotte Gainsbourg, Вівіка А. Фокс / Vivica A. Fox, Села Вард / Sela Ward, Брент Спайнер / Brent Spiner, Джадд Хірш / Judd Hirsch та інші

Сюжет:
Сиквел однієї з найпопулярніших стрічок-катастроф 90-их про вторгнення інопланетян на планету Земля "День незалежності" Роланда Еммеріха. Режисер "Ґодзілли", "2012" і "Післязавтра" через двадцять років повернувся до знаменитої історії. Після подій минули два десятиріччя. Людство, адаптувавши технології прибульців, створило глобальну оборонну систему. Деякі військові сили були розміщені на Марсі, Місяці та Реї. До своєї остаточної поразки 20 років тому інопланетяни встигли послати у космос сигнал лиха. Тепер в сторону Землі прямує більш потужний і численний флот. Чи зможе на цей раз винахідливість кількох осіб врятувати цивілізацію?

Українські трейлери





Рейтинг MPAA: PG-13 - дітям до 13 років перегляд не бажаний
Вікова категорія: 12+

Тривалість: 01:59:44
Якість: AVC
Відео:
кодек:
розмір кадру: 1024 х 426
бітрейт: 2258 Кбіт/с

Аудіо # 1:
мова: українська
переклад: професійний дубльований | Postmodern
кодек: 5.1
бітрейт: 448 Кбіт/с
Інформація про дубляж
Переклад: Олег Колесніков
Режисер дубляжу: Людміла Петриченко
Звукорежисер: Генадій Алексєєв
Ролі дублювали: Дмитро Сова, Микола Боклан, Дмитро Тварковський, Євген Пашин, Марина Локтіонова, Наталя Задніпровська, Юрій Гребельник, Олександр Ігнатуша, Юрій Висоцький, Михайло Кришталь та інші.
Фільм дубльовано компанією Postmodern
Аудіо # 2:
мова: англійська
переклад: оригінал
кодек: 5.1
бітрейт: 448 Кбіт/с

Субтитри #1-2:
мова: українська (форсовані, повні)
тип: програмні (м'які)
формат: *.srt

Субтитри #3-5:
мова: англійська (форсовані, повні, SDH)
тип: програмні (м'які)
формат: *.srt

Збережено оригінальні розділи, як на Blu-ray
MediaInfo
Код:
Complete name               : Independence Day Resurgence (2016) [Ukr,Eng sub.Ukr,Eng] AVC [Hurtom].mkv
Format                      : Matroska
Format version              : Version 4 / Version 2
File size                   : 2.64 GiB
Duration                    : 1 h 59 min
Overall bit rate            : 3 156 kb/s
Movie name                  : День незалежності 2: Відродження / Independence Day: Resurgence (2016) [Ukr,Eng sub.Ukr,Eng] AVC [Hurtom] by igor911
Released date               : 2016
Cover                       : Yes
Comment                     : http://www.imdb.com/title/tt1628841/
Attachments                 : cover.jpg
ARTIST                      : Ліам Гемсворт / Liam Hemsworth, Джефф Ґолдблюм / Jeff Goldblum, Білл Пуллман / Bill Pullman, Майка Монро / Maika Monroe, Джої Кінґ / Joey King, Вільям Фіхтнер / William Fichtner, Шарлотта Ґенсбурґ / Charlotte Gainsbourg, Вівіка А. Фокс / Vivica A. Fox, Села Вард / Sela Ward, Брент Спайнер / Brent Spiner, Джадд Хірш / Judd Hirsch та інші
DIRECTOR                    : Роланд Еммеріх / Roland Emmerich
GENRE                       : екшн, трилер, драма, кримінальний
SYNOPSIS                    : Сиквел однієї з найпопулярніших стрічок-катастроф 90-их про вторгнення інопланетян на планету Земля "День незалежності" Роланда Еммеріха. Режисер "Ґодзілли", "2012" і "Післязавтра" через двадцять років повернувся до знаменитої історії. Після подій минули два десятиріччя. Людство, адаптувавши технології прибульців, створило глобальну оборонну систему. Деякі військові сили були розміщені на Марсі, Місяці та Реї. До своєї остаточної поразки 20 років тому інопланетяни встигли послати у космос сигнал лиха. Тепер в сторону Землі прямує більш потужний і численний флот. Чи зможе на цей раз винахідливість кількох осіб врятувати цивілізацію?
Url                         : https://toloka.to/t76552

Video
ID                          : 1
Format                      : AVC
Format/Info                 : Advanced Video Codec
Format profile              : [email protected]
Format settings, CABAC      : Yes
Format settings, ReFrames   : 14 frames
Codec ID                    : V_MPEG4/ISO/AVC
Duration                    : 1 h 59 min
Bit rate                    : 2 258 kb/s
Width                       : 1 024 pixels
Height                      : 426 pixels
Display aspect ratio        : 2.40:1
Frame rate mode             : Constant
Frame rate                  : 23.976 (23976/1000) FPS
Color space                 : YUV
Chroma subsampling          : 4:2:0
Bit depth                   : 8 bits
Scan type                   : Progressive
Bits/(Pixel*Frame)          : 0.216
Stream size                 : 1.89 GiB (72%)
Title                       : День незалежності 2: Відродження / Independence Day: Resurgence (2016) AVC [ExKinoRay-Enigma]
Writing library             : core 144 r2525 40bb568
Encoding settings           : cabac=1 / ref=14 / deblock=1:-3:-3 / analyse=0x3:0x113 / me=umh / subme=10 / psy=1 / psy_rd=1.01:0.13 / mixed_ref=1 / me_range=32 / chroma_me=1 / trellis=2 / 8x8dct=1 / cqm=0 / deadzone=21,11 / fast_pskip=0 / chroma_qp_offset=-3 / threads=12 / lookahead_threads=2 / sliced_threads=0 / nr=0 / decimate=0 / interlaced=0 / bluray_compat=0 / constrained_intra=0 / bframes=9 / b_pyramid=2 / b_adapt=2 / b_bias=0 / direct=3 / weightb=1 / open_gop=0 / weightp=2 / keyint=240 / keyint_min=23 / scenecut=40 / intra_refresh=0 / rc_lookahead=40 / rc=2pass / mbtree=0 / bitrate=2258 / ratetol=1.0 / qcomp=0.60 / qpmin=0 / qpmax=51 / qpstep=4 / cplxblur=20.0 / qblur=0.5 / vbv_maxrate=50000 / vbv_bufsize=62500 / nal_hrd=none / filler=0 / ip_ratio=1.40 / pb_ratio=1.30 / aq=1:0.80
Language                    : English
Default                     : Yes
Forced                      : No
Color range                 : Limited
Color primaries             : BT.709
Transfer characteristics    : BT.709
Matrix coefficients         : BT.709

Audio #1
ID                          : 2
Format                      : AC-3
Format/Info                 : Audio Coding 3
Mode extension              : CM (complete main)
Format settings, Endianness : Big
Codec ID                    : A_AC3
Duration                    : 1 h 59 min
Bit rate mode               : Constant
Bit rate                    : 448 kb/s
Channel(s)                  : 6 channels
Channel positions           : Front: L C R, Side: L R, LFE
Sampling rate               : 48.0 kHz
Frame rate                  : 31.250 FPS (1536 spf)
Compression mode            : Lossy
Stream size                 : 384 MiB (14%)
Title                       : Dub [Postmodern, Blu-ray EUR] 5.1 448 Kbps
Language                    : Ukrainian
Default                     : Yes
Forced                      : No

Audio #2
ID                          : 3
Format                      : AC-3
Format/Info                 : Audio Coding 3
Mode extension              : CM (complete main)
Format settings, Endianness : Big
Codec ID                    : A_AC3
Duration                    : 1 h 59 min
Bit rate mode               : Constant
Bit rate                    : 448 kb/s
Channel(s)                  : 6 channels
Channel positions           : Front: L C R, Side: L R, LFE
Sampling rate               : 48.0 kHz
Frame rate                  : 31.250 FPS (1536 spf)
Compression mode            : Lossy
Stream size                 : 384 MiB (14%)
Title                       : Original, 5.1 448 Kbps
Language                    : English
Default                     : No
Forced                      : No

Text #1
ID                          : 4
Format                      : UTF-8
Codec ID                    : S_TEXT/UTF8
Codec ID/Info               : UTF-8 Plain Text
Duration                    : 8 s 388 ms
Bit rate                    : 166 b/s
Count of elements           : 3
Stream size                 : 175 Bytes (0%)
Title                       : Ukr forced
Language                    : Ukrainian
Default                     : Yes
Forced                      : Yes

Text #2
ID                          : 5
Format                      : UTF-8
Codec ID                    : S_TEXT/UTF8
Codec ID/Info               : UTF-8 Plain Text
Duration                    : 1 h 58 min
Bit rate                    : 95 b/s
Count of elements           : 1733
Stream size                 : 82.9 KiB (0%)
Title                       : Ukr full
Language                    : Ukrainian
Default                     : No
Forced                      : No

Text #3
ID                          : 6
Format                      : UTF-8
Codec ID                    : S_TEXT/UTF8
Codec ID/Info               : UTF-8 Plain Text
Duration                    : 7 s 758 ms
Bit rate                    : 110 b/s
Count of elements           : 3
Stream size                 : 107 Bytes (0%)
Title                       : Eng forced
Language                    : English
Default                     : No
Forced                      : No

Text #4
ID                          : 7
Format                      : UTF-8
Codec ID                    : S_TEXT/UTF8
Codec ID/Info               : UTF-8 Plain Text
Duration                    : 1 h 49 min
Bit rate                    : 80 b/s
Count of elements           : 1711
Stream size                 : 64.4 KiB (0%)
Title                       : Eng full
Language                    : English
Default                     : No
Forced                      : No

Text #5
ID                          : 8
Format                      : UTF-8
Codec ID                    : S_TEXT/UTF8
Codec ID/Info               : UTF-8 Plain Text
Duration                    : 1 h 49 min
Bit rate                    : 74 b/s
Count of elements           : 2158
Stream size                 : 59.7 KiB (0%)
Title                       : Eng SDH
Language                    : English
Default                     : No
Forced                      : No

Menu
00:00:00.000                : en:00:00:00.000
00:05:37.337                : en:00:05:37.337
00:09:15.472                : en:00:09:15.472
00:14:06.721                : en:00:14:06.721
00:19:40.471                : en:00:19:40.471
00:22:59.003                : en:00:22:59.003
00:27:10.254                : en:00:27:10.254
00:31:37.646                : en:00:31:37.646
00:39:11.975                : en:00:39:11.975
00:43:41.118                : en:00:43:41.118
00:47:46.614                : en:00:47:46.614
00:52:32.191                : en:00:52:32.191
00:59:10.255                : en:00:59:10.255
01:02:00.133                : en:01:02:00.133
01:07:12.070                : en:01:07:12.070
01:09:54.816                : en:01:09:54.816
01:13:11.721                : en:01:13:11.721
01:18:27.453                : en:01:18:27.453
01:22:45.502                : en:01:22:45.502
01:27:51.808                : en:01:27:51.808
01:32:36.718                : en:01:32:36.718
01:39:38.139                : en:01:39:38.139
01:47:20.142                : en:01:47:20.142
01:50:36.713                : en:01:50:36.713


Джерело: &

ЗАЛИШАЙТЕСЬ ЯКОМОГА ДОВШЕ НА РОЗДАЧІ!
СКАЧАВ САМ - ДАЙ СКАЧАТИ ІНШИМ


 Трекер:    Зареєстрований   

Завантажити / скачати фільм українською



відео для новачків



 Зареєстрований:   2016-10-08 19:51
 Розмір:   2.64 GB 
 Оцінка фільму:   6.4/10 (Голосів: 26)
   
bot 
робот


З нами з: 30.09.07
Востаннє: 26.05.05
Повідомлень: 16002

2016-10-08 19:51  
Тему перенесено з Анонси релізів до форуму Фільми


igor911

wersal256 
Частий відвідувач


З нами з: 01.09.08
Востаннє: 04.12.16
Повідомлень: 46

2016-10-10 11:08  
igor911
Маю питаннячко - скажіть, навіщо збільшувари реліз додатковими аудіо та субтитрами?

Anonymous 







2016-10-10 11:15  
wersal256, не додатковими, а оригінальними - є ж українські саби, багато людей дивляться в оригіналі з укр.субтитрами.
katolik 
Поважний учасник


З нами з: 01.12.08
Востаннє: 27.11.16
Повідомлень: 192

2016-10-22 01:35  
Шкода, що менші розміри релізів тут не популярні, тож не зможу довго стояти на роздачі, бо місця на диску зовсім мало для зберігання понад двох з половиною гіга... Збираюся конвертувати його для андроїда на 480x272 50fps, що буде не більше пів-гіга. Але всеодно дякую шановному Автору релізу, а також вельммишанованому товариству за добру швидкість завантаження.
Ваш часовий пояс: GMT + 2 Години

Нова тема   Відповісти