Завантажити та скачати торренти українською


Колір грошей / The Color of Money (1986) 720p 2xUkr/Eng | Sub Eng

Нові коментарі

Нова тема   Відповісти
Автор Повідомлення
Anonymous 







2016-10-08 00:32  
Колір грошей / The Color of Money (1986) 720p 2xUkr/Eng | Sub Eng



Альтернативний постер


повнорозмірні зображення відкриються по кліку (з натиснутим CTRL чи кліком середньою кнопкою мишки - у новій вкладці)


Жанр: драма, спорт
Країна: США



Кінокомпанія: Touchstone Pictures, Silver Screen Partners II
Режисер: Мартін Скорсезе / Martin Scorsese
Актори: Пол Ньюмен / Paul Newman, Том Круз / Tom Cruise, Мері Елізабет Мастрантоніо / Mary Elizabeth Mastrantonio, Гелен Шейвер / Helen Shaver, Білл Коббс / Bill Cobbs, Джон Туртурро / John Turturro, Брюс А. Янґ / Bruce A. Young, Форест Вайтакер / Forest Whitaker, Іґґі Поп / Iggy Pop, Роберт Ейґінс / Robert Agins, Елізабет Бракко / Elizabeth Bracco, Елвін Анастасіа / Alvin Anastasia, Ренделл Арні / Randall Arney, Віто Д’Амброзіо / Vito D'Ambrosio, Рон Дін / Ron Dean, Пол Ґеєр / Paul Geier, Джо Ґуастаферро / Joe Guastaferro, Пол Гермен / Paul Herman, Ліза Додсон / Lisa Dodson, Дональд Фіні / Donald A. Feeney, Кері Ґолденберґ / Carey Goldenberg, Кіт МакКріді / Keith McCready, Джиммі Матая / Jimmy Mataya, Джим Відловскі / Jim Widlowski та інші...

Сюжет:
Славнозвісний майстер гри у більярд Едді Фелсон («Швидкий Едді», «Спритний Едді») вже давно не грає в улюблену гру, а займається спокійним і прибутковим бізнесом з продажу алкоголю. Та одного разу у своєму барі він помічає молодого і дуже талановитого гравця Вінсента, який завдає своїм суперникам нищівних поразок. Едді вирішує згадати молодість і навчити юнака мистецтву заробляти великі гроші за більярдним столом...
Екранізація роману Волтера Тевіса.


Тривалість: 01:59:39
Якість: 720p
Відео:
кодек:
розмір кадру: 1280 х 692
бітрейт: 6000 Кбіт/с

Аудіо # 1:
мова: українська
переклад: багатоголосий закадровий
кодек: 2.0
бітрейт: 192 Кбіт/с

Аудіо # 2: КІНО
мова: українська
переклад: двоголосий закадровий | Cтудія "Стар-Майстер"
ролі озвучили: Ярослав Чорненький і Лідія Муращенко
кодек: 2.0
бітрейт: 192 Кбіт/с
примітка:
HDClub написано:
в доріжці було багато оригінальних вставок, тому було виправлено частотну різницю між ними та самою доріжкою

Аудіо # 3:
мова: англійська
переклад: оригінал
кодек: 5.1
бітрейт: 640 Кбіт/с

Субтитри:
мова: англійська
тип: програмні (м'які)
формат: *.srt

Збережено оригінальні розділи, як на Blu-ray.
MediaInfo
Код:
Complete name               : The Color of Money (1986) [2xUkr,Eng sub.Eng] 720p [Hurtom].mkv
Format                      : Matroska
Format version              : Version 4 / Version 2
File size                   : 5.87 GiB
Duration                    : 1 h 59 min
Overall bit rate            : 7 021 kb/s
Movie name                  : Колір грошей / The Color of Money (1986) [2xUkr,Eng sub.Eng] 720p [Hurtom] by igor911
Cover                       : Yes
Comment                     : http://www.imdb.com/title/tt0090863/
Attachments                 : cover.jpg
ARTIST                      : Пол Ньюмен / Paul Newman, Том Круз / Tom Cruise, Мері Елізабет Мастрантоніо / Mary Elizabeth Mastrantonio, Гелен Шейвер / Helen Shaver, Білл Коббс / Bill Cobbs, Джон Туртурро / John Turturro, Брюс А. Янґ / Bruce A. Young, Форест Вайтакер / Forest Whitaker, Іґґі Поп / Iggy Pop, Роберт Ейґінс / Robert Agins, Елізабет Бракко / Elizabeth Bracco, Елвін Анастасіа / Alvin Anastasia, Ренделл Арні / Randall Arney, Віто Д’Амброзіо / Vito D'Ambrosio, Рон Дін / Ron Dean, Пол Ґеєр / Paul Geier, Джо Ґуастаферро / Joe Guastaferro, Пол Гермен / Paul Herman, Ліза Додсон / Lisa Dodson, Дональд Фіні / Donald A. Feeney, Кері Ґолденберґ / Carey Goldenberg, Кіт МакКріді / Keith McCready, Джиммі Матая / Jimmy Mataya, Джим Відловскі / Jim Widlowski та інші
DIRECTOR                    : Мартін Скорсезе / Martin Scorsese
GENRE                       : драма, спорт
SYNOPSIS                    : Славнозвісний майстер гри у більярд Едді Фелсон («Швидкий Едді», «Спритний Едді») вже давно не грає в улюблену гру, а займається спокійним і прибутковим бізнесом з продажу алкоголю. Та одного разу у своєму барі він помічає молодого і дуже талановитого гравця Вінсента, який завдає своїм суперникам нищівних поразок. Едді вирішує згадати молодість і навчити юнака мистецтву заробляти великі гроші за більярдним столом... Екранізація роману Волтера Тевіса. Історія молодого Едді Фелсона - у фільмі "Більярдист / The Hustler" (1961)
Url                         : https://toloka.to/t76537

Video
ID                          : 1
Format                      : AVC
Format/Info                 : Advanced Video Codec
Format profile              : [email protected]
Format settings, CABAC      : Yes
Format settings, ReFrames   : 9 frames
Codec ID                    : V_MPEG4/ISO/AVC
Duration                    : 1 h 59 min
Bit rate                    : 6 000 kb/s
Width                       : 1 280 pixels
Height                      : 692 pixels
Display aspect ratio        : 1.85:1
Frame rate mode             : Constant
Frame rate                  : 23.976 (24000/1001) FPS
Color space                 : YUV
Chroma subsampling          : 4:2:0
Bit depth                   : 8 bits
Scan type                   : Progressive
Bits/(Pixel*Frame)          : 0.283
Stream size                 : 5.01 GiB (85%)
Title                       : Колір грошей / The Color of Money (1986) 720p [HDClub]
Writing library             : core 129 r2230 1cffe9f
Encoding settings           : cabac=1 / ref=9 / deblock=1:-3:-3 / analyse=0x3:0x133 / me=umh / subme=11 / psy=1 / psy_rd=1.10:0.00 / mixed_ref=1 / me_range=48 / chroma_me=1 / trellis=2 / 8x8dct=1 / cqm=0 / deadzone=21,11 / fast_pskip=0 / chroma_qp_offset=-2 / threads=12 / lookahead_threads=2 / sliced_threads=0 / nr=0 / decimate=1 / interlaced=0 / bluray_compat=0 / constrained_intra=0 / bframes=9 / b_pyramid=2 / b_adapt=2 / b_bias=0 / direct=3 / weightb=1 / open_gop=0 / weightp=2 / keyint=250 / keyint_min=23 / scenecut=40 / intra_refresh=0 / rc_lookahead=60 / rc=2pass / mbtree=0 / bitrate=6000 / ratetol=1.0 / qcomp=0.60 / qpmin=0 / qpmax=69 / qpstep=4 / cplxblur=20.0 / qblur=0.5 / vbv_maxrate=50000 / vbv_bufsize=62500 / nal_hrd=none / ip_ratio=1.40 / pb_ratio=1.30 / aq=1:0.80
Language                    : English
Default                     : Yes
Forced                      : Yes

Audio #1
ID                          : 2
Format                      : AC-3
Format/Info                 : Audio Coding 3
Mode extension              : CM (complete main)
Format settings, Endianness : Big
Codec ID                    : A_AC3
Duration                    : 1 h 59 min
Bit rate mode               : Constant
Bit rate                    : 192 kb/s
Channel(s)                  : 2 channels
Channel positions           : Front: L R
Sampling rate               : 48.0 kHz
Frame rate                  : 31.250 FPS (1536 spf)
Compression mode            : Lossy
Stream size                 : 164 MiB (3%)
Title                       : MVO [1+1] 2.0 192 Kbps [Hurtom-Arsenfpu,xslim]
Language                    : Ukrainian
Default                     : Yes
Forced                      : No

Audio #2
ID                          : 3
Format                      : AC-3
Format/Info                 : Audio Coding 3
Mode extension              : CM (complete main)
Format settings, Endianness : Big
Codec ID                    : A_AC3
Duration                    : 1 h 59 min
Bit rate mode               : Constant
Bit rate                    : 192 kb/s
Channel(s)                  : 2 channels
Channel positions           : Front: L R
Sampling rate               : 48.0 kHz
Frame rate                  : 31.250 FPS (1536 spf)
Compression mode            : Lossy
Stream size                 : 164 MiB (3%)
Title                       : DVO [Star-Majster,Kino] 2.0 192 Kbps [Hurtom-Romario_O,Hulk1987, HDClub-Devlad]
Language                    : Ukrainian
Default                     : No
Forced                      : No

Audio #3
ID                          : 4
Format                      : AC-3
Format/Info                 : Audio Coding 3
Mode extension              : CM (complete main)
Format settings, Endianness : Big
Codec ID                    : A_AC3
Duration                    : 1 h 59 min
Bit rate mode               : Constant
Bit rate                    : 640 kb/s
Channel(s)                  : 6 channels
Channel positions           : Front: L C R, Side: L R, LFE
Sampling rate               : 48.0 kHz
Frame rate                  : 31.250 FPS (1536 spf)
Compression mode            : Lossy
Stream size                 : 548 MiB (9%)
Title                       : Original, 5.1 640 Kbps
Language                    : English
Default                     : No
Forced                      : No

Text
ID                          : 5
Format                      : UTF-8
Codec ID                    : S_TEXT/UTF8
Codec ID/Info               : UTF-8 Plain Text
Duration                    : 1 h 58 min
Bit rate                    : 69 b/s
Count of elements           : 1520
Stream size                 : 60.1 KiB (0%)
Language                    : English
Default                     : No
Forced                      : No

Menu
00:00:00.000                : en:Main Titles
00:04:50.081                : en:Grendel's Attack
00:06:09.702                : en:Aftermath
00:09:37.785                : en:Arrival of Beowulf
00:14:19.442                : en:Let's Drink
00:18:26.188                : en:Queen's Song
00:21:46.971                : en:Prepare to Face the Monster
00:26:19.494                : en:Grendel Attacks
00:32:21.856                : en:Grendel Is Dead
00:37:23.907                : en:Revenge
00:39:11.556                : en:It's Not Grendel
00:46:40.005                : en:Into the Beast's Lair
00:53:57.943                : en:Curse Is Lifted?
01:03:40.275                : en:King Beowulf
01:07:08.314                : en:The Song of Beowulf
01:10:18.713                : en:Son of Beowulf
01:19:59.086                : en:Into Battle
01:22:10.175                : en:Into the Beast's Lair Again
01:28:33.015                : en:Riding the Dragon
01:35:57.335                : en:Queen and Mistress in Danger
01:39:00.685                : en:Goodbye to Father and Son
01:53:19.792                : en:A New Beginning
01:54:59.100                : en:End Titles
01:56:08.377                : en:


Джерела та подяки: &
За доріжку "1+1" подяка Arsenfpu (зведення) та xslim (запис з ТБ), за доріжку "Кіно" подяка Romario_O (зведення), Hulk1987 (запис з ТБ), Devlad (HDClub, виправлення)


рекомендую переглянути приквел Більярдист / The Hustler (1961) про Швидкого Едді - теж за романом Волтера Тевіса і теж з Полом Ньюманом



ЗАЛИШАЙТЕСЬ ЯКОМОГА ДОВШЕ НА РОЗДАЧІ!
СКАЧАВ САМ - ДАЙ СКАЧАТИ ІНШИМ


Срібний реліз (на рейтинг впливає 50% завантаженого)
 Трекер:    Зареєстрований   

Завантажити / скачати фільм українською



відео для новачків



 Зареєстрований:   2016-10-08 13:37
 Розмір:   5.87 GB 
 Оцінка фільму:   3.1/10 (Голосів: 13)
   
Інші релізи
   Колір грошей / The Color of Money (1986) 2xUkr/Eng Arsenfpu  5 / 0   2.19 GB   2016-10-07 19:20 
bot 
робот


З нами з: 30.09.07
Востаннє: 26.05.05
Повідомлень: 15983

2016-10-08 13:37  
Тему перенесено з Анонси релізів до форуму Фільми в HD


igor911

Ваш часовий пояс: GMT + 2 Години

Нова тема   Відповісти