Завантажити та скачати торренти українською


Легенда про Тарзана / The Legend of Tarzan (2016) 1080p 3D [HalfOverUnder] Ukr/Eng | Sub Ukr/Eng

Нові коментарі

Нова тема   Відповісти
Автор Повідомлення
-VipeR- 
VIP


З нами з: 17.07.08
Востаннє: 04.12.16
Повідомлень: 275

2016-10-06 12:37  
Легенда про Тарзана / The Legend of Tarzan (2016) 1080p 3D [HalfOverUnder] Ukr/Eng | Sub Ukr/Eng

Легенда про Тарзана / The Legend of Tarzan (2016) 1080p 3D [HalfOverUnder] Ukr/Eng | Sub Ukr/Eng


Жанр: екшн, пригодницький, драма
Країна: США



Кінокомпанія: Dark Horse Entertainment, Jerry Weintraub Productions, Riche Productions
Режисер: Девід Єтс
Актори: Александер Скарсґард, Марґо Роббі, Семюел Л. Джексон, Елла Пернелл, Крістоф Вальц, Джим Бродбент, Джимон Гонсу, Каспер Крамп

Сюжет:
Тарзан, який пристосувався до життя у Лондоні, повертається до свого колишнього дому, у джунґлі, щоб розібратись в тому, що відбувається у таборі гірничодобувної компанії...


Тривалість: 01:49:58
Якість: 1080p 3D [HalfOverUnder] by ash61
Відео:
кодек:
розмір кадру: 1920 х 1080
бітрейт: 14 мбіт/с

Аудіо # 1:
мова: українська
переклад: професійний дубльований
кодек: 2.0
бітрейт: 192 кб/с

Аудіо # 2:
мова: англійська
переклад: оригінал
кодек: 5.1
бітрейт: 640 кб/с

Субтитри:
мова: українська (Форсовані)
тип: програмні (м'які)
формат: *.srt

Субтитри:
мова: англійська (Повні, SDH)
тип: програмні (м'які)
формат: *.srt
MediaInfo
Код:
General
Unique ID                      : 226561381985962964612977213919729859111 (0xAA72228E1AE955B3B313677352A0BA27)
Complete name                  : D:\3D\Художні\The Legend of Tarzan (2016) 1080p 3D [HalfOverUnder] UkrEng  Sub Eng.mkv
Format                         : Matroska
Format version                 : Version 4 / Version 2
File size                      : 11.4 GiB
Duration                       : 1h 49mn
Overall bit rate               : 14.9 Mbps
Movie name                     : Легенда про Тарзана  / The Legend of Tarzan (2016) у  3D
Encoded date                   : UTC 2016-10-06 09:56:25
Writing application            : mkvmerge v8.8.0 ('Wind at my back') 64bit
Writing library                : libebml v1.3.3 + libmatroska v1.4.4
Cover                          : Yes
Attachments                    : cover.jpg

Video
ID                             : 1
Format                         : AVC
Format/Info                    : Advanced Video Codec
Format profile                 : [email protected]
Format settings, CABAC         : Yes
Format settings, ReFrames      : 4 frames
Codec ID                       : V_MPEG4/ISO/AVC
Duration                       : 1h 49mn
Bit rate                       : 14.0 Mbps
Width                          : 1 920 pixels
Height                         : 1 080 pixels
Display aspect ratio           : 16:9
Frame rate mode                : Constant
Frame rate                     : 23.976 (24000/1001) fps
Color space                    : YUV
Chroma subsampling             : 4:2:0
Bit depth                      : 8 bits
Scan type                      : Progressive
Bits/(Pixel*Frame)             : 0.282
Stream size                    : 10.8 GiB (94%)
Title                          : by Ash61
Writing library                : core 146 r2538 121396c
Encoding settings              : cabac=1 / ref=4 / deblock=1:-3:-3 / analyse=0x3:0x113 / me=umh / subme=10 / psy=1 / psy_rd=1.00:0.00 / mixed_ref=1 / me_range=32 / chroma_me=1 / trellis=2 / 8x8dct=1 / cqm=0 / deadzone=21,11 / fast_pskip=1 / chroma_qp_offset=-2 / threads=12 / lookahead_threads=2 / sliced_threads=0 / nr=0 / decimate=1 / interlaced=0 / bluray_compat=0 / constrained_intra=0 / bframes=8 / b_pyramid=2 / b_adapt=2 / b_bias=0 / direct=3 / weightb=1 / open_gop=0 / weightp=2 / keyint=250 / keyint_min=23 / scenecut=40 / intra_refresh=0 / rc_lookahead=60 / rc=crf / mbtree=1 / crf=15.5 / qcomp=0.70 / qpmin=0 / qpmax=69 / qpstep=4 / vbv_maxrate=40000 / vbv_bufsize=30000 / crf_max=0.0 / nal_hrd=none / filler=0 / frame-packing=4 / ip_ratio=1.40 / aq=1:0.70
Language                       : English
Default                        : Yes
Forced                         : No

Audio #1
ID                             : 2
Format                         : AC-3
Format/Info                    : Audio Coding 3
Mode extension                 : CM (complete main)
Format settings, Endianness    : Big
Codec ID                       : A_AC3
Duration                       : 1h 49mn
Bit rate mode                  : Constant
Bit rate                       : 192 Kbps
Channel(s)                     : 2 channels
Channel positions              : Front: L R
Sampling rate                  : 48.0 KHz
Frame rate                     : 31.250 fps (1536 spf)
Compression mode               : Lossy
Stream size                    : 151 MiB (1%)
Title                          : Дубляж - iTunes
Language                       : Ukrainian
Default                        : No
Forced                         : No

Audio #2
ID                             : 3
Format                         : AC-3
Format/Info                    : Audio Coding 3
Mode extension                 : CM (complete main)
Format settings, Endianness    : Big
Codec ID                       : A_AC3
Duration                       : 1h 49mn
Bit rate mode                  : Constant
Bit rate                       : 640 Kbps
Channel(s)                     : 6 channels
Channel positions              : Front: L C R, Side: L R, LFE
Sampling rate                  : 48.0 KHz
Frame rate                     : 31.250 fps (1536 spf)
Compression mode               : Lossy
Stream size                    : 503 MiB (4%)
Title                          : Original
Language                       : English
Default                        : No
Forced                         : No

Text #1
ID                             : 4
Format                         : UTF-8
Codec ID                       : S_TEXT/UTF8
Codec ID/Info                  : UTF-8 Plain Text
Duration                       : 1h 43mn
Bit rate                       : 3 bps
Count of elements              : 45
Stream size                    : 2.42 KiB (0%)
Title                          : Форсированные
Language                       : Ukrainian
Default                        : No
Forced                         : No

Text #2
ID                             : 5
Format                         : UTF-8
Codec ID                       : S_TEXT/UTF8
Codec ID/Info                  : UTF-8 Plain Text
Duration                       : 1h 47mn
Bit rate                       : 26 bps
Count of elements              : 677
Stream size                    : 20.8 KiB (0%)
Title                          : Full
Language                       : English
Default                        : No
Forced                         : No

Text #3
ID                             : 6
Format                         : UTF-8
Codec ID                       : S_TEXT/UTF8
Codec ID/Info                  : UTF-8 Plain Text
Duration                       : 1h 47mn
Bit rate                       : 32 bps
Count of elements              : 940
Stream size                    : 25.3 KiB (0%)
Title                          : SDH
Language                       : English
Default                        : No
Forced                         : No

Menu
00:00:00.000                   : :1
00:10:56.238                   : :2
00:20:47.201                   : :3
00:28:26.287                   : :4
00:40:49.195                   : :5
00:51:03.309                   : :6
01:01:15.295                   : :7
01:10:22.635                   : :8
01:20:58.144                   : :9
01:29:09.344                   : :10
01:42:06.493                   : :11
Скріншоти




Джерело: &

Подяка пану AngryBirdsUA за українську доріжку.

Відео для перегляду на 3D обладнанні!


 Трекер:    Зареєстрований   

Завантажити / скачати фільм українською



відео для новачків



 Зареєстрований:   2016-10-06 12:37
 Розмір:   11.43 GB 
 Оцінка фільму:   9.5/10 (Голосів: 4)
   
Wensun 
Частий відвідувач


З нами з: 20.01.09
Востаннє: 01.12.16
Повідомлень: 47

2016-10-06 17:43  
ну де ж та роздача ?
respect14 
VIP


З нами з: 26.01.11
Востаннє: 04.12.16
Повідомлень: 378

2016-10-06 18:12  
Пане "Viper" почніть роздавати)
Ваш часовий пояс: GMT + 2 Години

Нова тема   Відповісти