Завантажити та скачати торренти українською


Вона - чоловік / She's the Man (2006) 1080p Ukr/Eng

Нові коментарі

Нова тема   Відповісти
Автор Повідомлення
Pegass 
VIP


З нами з: 17.12.09
Востаннє: 05.12.16
Повідомлень: 302

2016-10-06 01:59  
Вона - чоловік / She's the Man (2006) 1080p Ukr/Eng

Вона - чоловік / She's the Man (2006) 1080p Ukr/Eng


Жанр: комедія, романтичний
Країна: США, Канада



Кінокомпанія: DreamWorks SKG, Lakeshore Entertainment, Donners' Company
Режисер: Енді Фікман
Актори: Аманда Байнс, Ченнінґ Тейтум, Роберт Хоффман, Вінні Джонс, Лора Ремсі

Сюжет:
За мотивами п'єси Вільяма Шекспіра "Дванадцята ніч".
17-річна Віола грає у футбол краще, ніж будь-який хлопчисько. Коли футбольні тренування для дівчат відміняються, вона йде на відчайдушний крок - видає себе за брата-близнюка Себастьяна. Живучи в образі хлопця, Віола закохується в свого сусіда по кімнаті Дюка, який в свою чергу закоханий в студентку Олівію, а Олівія зачарована Віолою, не знаючи, що вона дівчина. В день вирішальної гри Віолі залишається одне: довести, що вона - справжній чоловік. Принаймні, на футбольному полі.


Тривалість: 01:45:12
Якість: 1080p
Відео:
кодек:
розмір кадру: 1920 х 1080
бітрейт: 9342 кб/с

Аудіо # 1:
мова: українська
переклад: двоголосий закадровий ,
кодек: 2.0
бітрейт: 192 кб/с

Аудіо # 2:
мова: англійська
переклад: оригінал
кодек: 5.1
бітрейт: 448 кб/с

Джерело озвучення:
,
MediaInfo
General
Unique ID : 234750534930716242853420852008462130577 (0xB09B4EF7C8F4C82897959CC3D2D91D91)
Complete name : E:\She's the Man (2006) 1080p [Ukr, Eng] [Hurtom].mkv
Format : Matroska
Format version : Version 4 / Version 2
File size : 7.48 GiB
Duration : 1h 45mn
Overall bit rate mode : Constant
Overall bit rate : 10.2 Mbps
Encoded date : UTC 2016-10-05 22:20:26
Writing application : mkvmerge v6.1.0 ('Old Devil') built on Mar 2 2013 14:32:37
Writing library : libebml v1.3.0 + libmatroska v1.4.0

Video
ID : 1
Format : AVC
Format/Info : Advanced Video Codec
Format profile : [email protected]
Format settings, CABAC : Yes
Format settings, ReFrames : 4 frames
Codec ID : V_MPEG4/ISO/AVC
Duration : 1h 45mn
Bit rate mode : Constant
Bit rate : 9 342 Kbps
Nominal bit rate : 10 000 Kbps
Width : 1 920 pixels
Height : 1 080 pixels
Display aspect ratio : 16:9
Frame rate mode : Constant
Frame rate : 23.976 (24000/1001) fps
Original frame rate : 25.000 fps
Standard : PAL
Color space : YUV
Chroma subsampling : 4:2:0
Bit depth : 8 bits
Scan type : Progressive
Bits/(Pixel*Frame) : 0.188
Stream size : 6.87 GiB (92%)
Title : Вона - чоловік / She's the Man (2006) 1080p [Ukr, Eng] [Hurtom]
Language : English
Default : Yes
Forced : No
Color range : Limited
Color primaries : BT.709
Transfer characteristics : BT.709
Matrix coefficients : BT.709

Audio #1
ID : 2
Format : AC-3
Format/Info : Audio Coding 3
Mode extension : CM (complete main)
Format settings, Endianness : Big
Codec ID : A_AC3
Duration : 1h 45mn
Bit rate mode : Constant
Bit rate : 192 Kbps
Channel(s) : 2 channels
Channel positions : Front: L R
Sampling rate : 48.0 KHz
Frame rate : 31.250 fps (1536 spf)
Compression mode : Lossy
Stream size : 144 MiB (2%)
Title : 2.0 / 192 Kbps | New Channel / TET
Language : Ukrainian
Default : Yes
Forced : No

Audio #2
ID : 3
Format : AC-3
Format/Info : Audio Coding 3
Mode extension : CM (complete main)
Format settings, Endianness : Big
Codec ID : A_AC3
Duration : 1h 45mn
Bit rate mode : Constant
Bit rate : 448 Kbps
Channel(s) : 6 channels
Channel positions : Front: L C R, Side: L R, LFE
Sampling rate : 48.0 KHz
Frame rate : 31.250 fps (1536 spf)
Compression mode : Lossy
Delay relative to video : 24ms
Stream size : 337 MiB (4%)
Title : 5.1 / 448 Kbps | Original
Language : English
Default : No
Forced : No
Скріншоти





Джерело: Інше
За роботу із доріжкою дякую пану Arsenfpu
За запис звуку з ТБ дякую пану slavik_v_z
Особиста оцінка: 10 - без зайвих вагань рекомендую всім!


 Трекер:    Зареєстрований   

Завантажити / скачати фільм українською



відео для новачків



 Зареєстрований:   2016-10-06 01:59
 Розмір:   7.48 GB 
 Оцінка фільму:   10/10 (Голосів: 3)
   
Інші релізи
   Вона - чоловік / She's the Man (2006) Ukr/Eng Arsenfpu  5 / 0   1.46 GB   2016-10-03 20:58 
   Вона - чоловік / She's the Man (2006) NemoInFire  1 / 0   1.48 GB   2013-01-29 12:37 
Cure 
Новенький


З нами з: 06.01.11
Востаннє: 12.11.16
Повідомлень: 5

2016-10-10 21:45  
роздавать плануєм?
valentin66658 
Новенький


З нами з: 26.01.16
Востаннє: 05.12.16
Повідомлень: 8

2016-10-21 17:18  
роздачу дайте !! чи ви там просто висите в сідах ?
igor911 
Відео Гуртом
Відео Гуртом


З нами з: 18.01.08
Востаннє: 06.12.16
Повідомлень: 5144

2016-10-21 17:20  
valentin66658 написано:
Рейтинг: 0.02

А ти коли роздаватимеш, друже?

Ваш часовий пояс: GMT + 2 Години

Нова тема   Відповісти