Завантажити та скачати торренти українською


Люди Ікс: Апокаліпсис / X-Men: Apocalypse (2016) 720p-mini (60 fps)

Нові коментарі

Нова тема   Відповісти
Автор Повідомлення
Drool 
VIP


З нами з: 17.04.10
Востаннє: 09.12.16
Повідомлень: 1270

2016-10-03 16:36  
Люди Ікс: Апокаліпсис / X-Men: Apocalypse (2016) 720p-mini (60 fps)

Жанр: фантастика, пригодницький, екшн
Країна: США



Кінокомпанія: Twentieth Century Fox Film Corporation, Marvel Entertainment, TSG Entertainment, Bad Hat Harry Productions, Donners' Company, Kinberg Genre, Mel's Cite du Cinema
Режисер: Браян Сінґер
Актори: Джеймс МакЕвой, Майкл Фассбендер, Дженніфер Лоуренс, Ніколас Голт, Олівія Манн, Софі Тернер, Оскар Айзек, Роуз Бірн, Еван Пітерс, Тай Шерідан

Сюжет:
Цього разу загону молодих мутантів належить битися з новим, більш сильним суперником, який називає себе Апокаліпсисом. Це перший мутант, що володіє колосальною силою і якому поклонялися в стародавньому Єгипті. Прокинувшись після тисячолітнього сну, безсмертний Апокаліпсис розчаровується в новому світі і вирішує його змінити. В якості помічників він обирає чотирьох мутантів, завдання яких перетворити наш світ на руїни. Однак Чарльз Ксавьє не може допустити, щоб подібне трапилося, навіть не дивлячись на ставлення звичайних людей до таких, як він.


Тривалість: 02:23:56
Якість: 720p-mini
Відео:
кодек:
розмір кадру: 1280 х 534
бітрейт: 4037 кб/с
crf: 17.6
кадрів на секунду: 59.940 к/с

Аудіо:
мова: українська
переклад: професійний дубльований
кодек: 5.1
бітрейт: 448 кб/с

Субтитри:
мова: українські (форсовані на діалоги староєгипетською, німецькою, польською мовами) | igor911
тип: програмні (м'які)
формат: *.srt
MediaInfo
Код:
General
Unique ID                                : 49127190102543176395911287106081578057 (0x24F58D7A7BEEB3FFDDECDE363AAEDC49)
Complete name                            : /mnt/disk_d/Video/X-Men.Apocalypse.2016.Ukr.Dub..720p-mini.60fps.mkv
Format                                   : Matroska
Format version                           : Version 4 / Version 2
File size                                : 4.60 GiB
Duration                                 : 2h 23mn
Overall bit rate                         : 4 576 Kbps
Movie name                               : Люди Ікс: Апокаліпсис / X-Men: Apocalypse (2016) 720p-mini [60fps] | NNNB
Encoded date                             : UTC 2016-10-03 13:14:29
Writing application                      : mkvmerge v9.2.0 ('Photograph') 64bit
Writing library                          : libebml v1.3.3 + libmatroska v1.4.4
Attachements                             : cover.jpg
DURATION                                 : 01:26:32.942000000
NUMBER_OF_FRAMES                         : 95
NUMBER_OF_BYTES                          : 3286
_STATISTICS_WRITING_APP                  : mkvmerge v9.2.0 ('Photograph') 64bit
_STATISTICS_WRITING_DATE_UTC             : 2016-10-03 13:14:29
_STATISTICS_TAGS                         : BPS DURATION NUMBER_OF_FRAMES NUMBER_OF_BYTES

Video
ID                                       : 1
Format                                   : AVC
Format/Info                              : Advanced Video Codec
Format profile                           : [email protected]
Format settings, CABAC                   : Yes
Format settings, ReFrames                : 9 frames
Codec ID                                 : V_MPEG4/ISO/AVC
Duration                                 : 2h 23mn
Bit rate                                 : 4 037 Kbps
Width                                    : 1 280 pixels
Height                                   : 534 pixels
Display aspect ratio                     : 2.40:1
Frame rate mode                          : Constant
Frame rate                               : 59.880 fps
Original frame rate                      : 59.940 fps
Color space                              : YUV
Chroma subsampling                       : 4:2:0
Bit depth                                : 8 bits
Scan type                                : Progressive
Bits/(Pixel*Frame)                       : 0.099
Stream size                              : 4.06 GiB (88%)
Title                                    : Люди Ікс: Апокаліпсис / X-Men: Apocalypse (2016) 720p-mini [60fps]
Writing library                          : core 146 r2538 121396c
Encoding settings                        : cabac=1 / ref=9 / deblock=1:0:0 / analyse=0x3:0x113 / me=umh / subme=10 / psy=1 / psy_rd=1.00:0.00 / mixed_ref=1 / me_range=32 / chroma_me=1 / trellis=2 / 8x8dct=1 / cqm=0 / deadzone=21,11 / fast_pskip=0 / chroma_qp_offset=-2 / threads=12 / lookahead_threads=1 / sliced_threads=0 / nr=0 / decimate=1 / interlaced=0 / bluray_compat=0 / constrained_intra=0 / bframes=5 / b_pyramid=2 / b_adapt=2 / b_bias=0 / direct=3 / weightb=1 / open_gop=0 / weightp=2 / keyint=250 / keyint_min=25 / scenecut=40 / intra_refresh=0 / rc_lookahead=40 / rc=crf / mbtree=0 / crf=17.6 / qcomp=0.60 / qpmin=0 / qpmax=69 / qpstep=4 / vbv_maxrate=14000 / vbv_bufsize=14000 / crf_max=0.0 / nal_hrd=none / filler=0 / ip_ratio=1.40 / pb_ratio=1.30 / aq=3:1.00
Default                                  : Yes
Forced                                   : Yes
DURATION                                 : 02:23:56.211000000
NUMBER_OF_FRAMES                         : 517655
NUMBER_OF_BYTES                          : 4451795930
_STATISTICS_WRITING_APP                  : mkvmerge v9.2.0 ('Photograph') 64bit
_STATISTICS_WRITING_DATE_UTC             : 2016-10-03 13:14:29
_STATISTICS_TAGS                         : BPS DURATION NUMBER_OF_FRAMES NUMBER_OF_BYTES

Audio
ID                                       : 2
Format                                   : AC-3
Format/Info                              : Audio Coding 3
Mode extension                           : CM (complete main)
Format settings, Endianness              : Big
Codec ID                                 : A_AC3
Duration                                 : 2h 23mn
Bit rate mode                            : Constant
Bit rate                                 : 448 Kbps
Channel(s)                               : 6 channels
Channel positions                        : Front: L C R, Side: L R, LFE
Sampling rate                            : 48.0 KHz
Compression mode                         : Lossy
Stream size                              : 461 MiB (10%)
Title                                    : Рідна мова | 5.1, 448 kbps, 48 kHz
Language                                 : Ukrainian
Default                                  : Yes
Forced                                   : Yes

Text
ID                                       : 3
Format                                   : UTF-8
Codec ID                                 : S_TEXT/UTF8
Codec ID/Info                            : UTF-8 Plain Text
Title                                    : Українські (форсовані) by igor911
Language                                 : Ukrainian
Default                                  : Yes
Forced                                   : Yes
Скріншоти



Джерело відеоряду:
Особиста оцінка: 9 - давно не бачив настільки якісне кіно


 Трекер:    Зареєстрований   

Завантажити / скачати фільм українською



відео для новачків



 Зареєстрований:   2016-10-03 16:36
 Розмір:   4.6 GB 
 Оцінка фільму:   9/10 (Голосів: 8)
   
Ваш часовий пояс: GMT + 2 Години

Нова тема   Відповісти