Завантажити та скачати торренти українською


Прибульці 3: Взяття Бастилії / Les Visiteurs : La Révolution (2016) 720p Ukr/Fre

Нові коментарі

Нова тема   Відповісти
Автор Повідомлення
Anonymous 







2016-10-02 12:49  
Прибульці 3: Взяття Бастилії / Les Visiteurs : La Révolution (2016) 720p Ukr/Fre



Жанр: комедія
Країна: Франція



Кінокомпанія: Gaumont, Ouille Productions, Nexus Factory, Okko Productions, TF1 Films Production, Canal+, Ciné+, BNP Paribas Fortis Film Finance, La Wallonie
Режисер: Жан-Марі Пуаре / Jean-Marie Poiré
Актори: Крістіан Клав'є / Christian Clavier, Жан Рено / Jean Reno, Франк Дюбоськ / Franck Dubosc, Карін Вьяр / Karin Viard, Сільві Тестю / Sylvie Testud, Марі-Анн Шазель / Marie-Anne Chazel та інші

Сюжет:
Не встигли Годфруа, граф де Монмірай та пройдисвіт Жакуй оговтатися після своїх утомливих подорожей у часі, як їм належить здійснити новий стрибок. Цього разу герої опиняться у Франції часів Революції.



Вікова категорія: 12+

Тривалість: 01:49:29
Якість: 720p
Відео:
кодек:
розмір кадру: 1280 х 536
бітрейт: 6875 Кбіт/с [crf=17.2]

Аудіо # 1:
мова: українська
переклад: професійний дубльований
кодек: 2.0
бітрейт: 192 Кбіт/с

Аудіо # 2:
мова: французька
переклад: оригінал
кодек: 5.1
бітрейт: 640 Кбіт/с

Збережено оригінальні розділи, як на Blu-ray.
MediaInfo
Код:
Complete name               : Les Visiteurs 3. La Revolution (2016) [Ukr,Fre] 720p [Hurtom].mkv
Format                      : Matroska
Format version              : Version 4 / Version 2
File size                   : 5.90 GiB
Duration                    : 1 h 49 min
Overall bit rate            : 7 709 kb/s
Movie name                  : Прибульці 3: Взяття Бастилії / Les Visiteurs : La Révolution (2016) [Ukr,Fre] 720p [Hurtom] by igor911
Cover                       : Yes
Comment                     : http://www.imdb.com/title/tt2441982/
Attachments                 : cover.jpg
ARTIST                      : Крістіан Клав'є / Christian Clavier, Жан Рено / Jean Reno, Франк Дюбоськ / Franck Dubosc, Карін Вьяр / Karin Viard, Сільві Тестю / Sylvie Testud, Марі-Анн Шазель / Marie-Anne Chazel та інші
DIRECTOR                    : Жан-Марі Пуаре / Jean-Marie Poiré
GENRE                       : комедія
SYNOPSIS                    : Не встигли Годфруа, граф де Монмірай та пройдисвіт Жакуй оговтатися після своїх утомливих подорожей у часі, як їм належить здійснити новий стрибок. Цього разу герої опиняться у Франції часів Революції.
Url                         : https://toloka.to/t76431

Video
ID                          : 1
Format                      : AVC
Format/Info                 : Advanced Video Codec
Format profile              : [email protected]
Format settings, CABAC      : Yes
Format settings, ReFrames   : 12 frames
Codec ID                    : V_MPEG4/ISO/AVC
Duration                    : 1 h 49 min
Bit rate                    : 6 875 kb/s
Width                       : 1 280 pixels
Height                      : 536 pixels
Display aspect ratio        : 2.40:1
Frame rate mode             : Constant
Frame rate                  : 24.000 FPS
Color space                 : YUV
Chroma subsampling          : 4:2:0
Bit depth                   : 8 bits
Scan type                   : Progressive
Bits/(Pixel*Frame)          : 0.418
Stream size                 : 5.26 GiB (89%)
Title                       : Прибульці 3: Взяття Бастилії / Les Visiteurs : La Révolution (2016) 720p [ExKinoRay]
Writing library             : core 148 r2705kMod 3f5ed56
Encoding settings           : cabac=1 / ref=12 / deblock=1:-3:-3 / analyse=0x3:0x133 / me=umh / subme=10 / psy=1 / fade_compensate=0.00 / psy_rd=0.97:0.00 / mixed_ref=1 / me_range=32 / chroma_me=1 / trellis=2 / 8x8dct=1 / cqm=0 / deadzone=21,11 / fast_pskip=0 / chroma_qp_offset=-2 / threads=12 / lookahead_threads=2 / sliced_threads=0 / nr=0 / decimate=0 / interlaced=0 / bluray_compat=0 / constrained_intra=0 / fgo=0 / bframes=8 / b_pyramid=2 / b_adapt=2 / b_bias=0 / direct=3 / weightb=1 / open_gop=0 / weightp=2 / keyint=240 / keyint_min=24 / scenecut=40 / intra_refresh=0 / rc_lookahead=60 / rc=crf / mbtree=0 / crf=17.2000 / qcomp=0.60 / qpmin=0 / qpmax=69 / qpstep=4 / vbv_maxrate=50000 / vbv_bufsize=62500 / crf_max=0.0 / nal_hrd=none / filler=0 / ip_ratio=1.35 / pb_ratio=1.25 / aq=3:0.80 / zones=0,557,crf=12/152831,157670,crf=21
Language                    : French
Default                     : Yes
Forced                      : No
Color range                 : Limited
Matrix coefficients         : BT.709

Audio #1
ID                          : 2
Format                      : AC-3
Format/Info                 : Audio Coding 3
Mode extension              : CM (complete main)
Format settings, Endianness : Big
Codec ID                    : A_AC3
Duration                    : 1 h 49 min
Bit rate mode               : Constant
Bit rate                    : 192 kb/s
Channel(s)                  : 2 channels
Channel positions           : Front: L R
Sampling rate               : 48.0 kHz
Frame rate                  : 31.250 FPS (1536 spf)
Compression mode            : Lossy
Stream size                 : 150 MiB (2%)
Title                       : Dub, 2.0 192 Kbps [Hurtom]
Language                    : Ukrainian
Default                     : Yes
Forced                      : No

Audio #2
ID                          : 3
Format                      : AC-3
Format/Info                 : Audio Coding 3
Mode extension              : CM (complete main)
Format settings, Endianness : Big
Codec ID                    : A_AC3
Duration                    : 1 h 49 min
Bit rate mode               : Constant
Bit rate                    : 640 kb/s
Channel(s)                  : 6 channels
Channel positions           : Front: L C R, Side: L R, LFE
Sampling rate               : 48.0 kHz
Frame rate                  : 31.250 FPS (1536 spf)
Compression mode            : Lossy
Stream size                 : 501 MiB (8%)
Title                       : Original, 5.1 640 Kbps
Language                    : French
Default                     : No
Forced                      : No

Menu
00:00:00.000                : en:00:00:00.000
00:11:30.208                : en:00:11:30.208
00:18:02.250                : en:00:18:02.250
00:27:02.792                : en:00:27:02.792
00:36:10.708                : en:00:36:10.708
00:40:20.875                : en:00:40:20.875
00:52:28.208                : en:00:52:28.208
00:57:19.208                : en:00:57:19.208
01:07:22.042                : en:01:07:22.042
01:23:56.667                : en:01:23:56.667
01:36:39.750                : en:01:36:39.750
01:44:40.542                : en:01:44:40.542
01:49:29.625                : en:01:49:29.625


Джерела та подяки: &
Подяка AngryBirdsUA за українську доріжку, taraskill1 за допомогу.


Підтримати купівлю інших фільмів можна тут

Усі релізи всіх частин цього фільму на Гуртом



ЗАЛИШАЙТЕСЬ ЯКОМОГА ДОВШЕ НА РОЗДАЧІ!
СКАЧАВ САМ - ДАЙ СКАЧАТИ ІНШИМ


 Трекер:    Зареєстрований   

Завантажити / скачати фільм українською



відео для новачків



 Зареєстрований:   2016-10-02 15:40
 Розмір:   5.9 GB 
 Оцінка фільму:   5.5/10 (Голосів: 26)
   
Інші релізи
apalonski 
Новенький


З нами з: 28.02.13
Востаннє: 03.11.16
Повідомлень: 3

2016-10-09 14:45  
Дуже кумедне кiно
straszko 
Новенький


З нами з: 31.05.14
Востаннє: 19.11.16
Повідомлень: 1

2016-10-20 18:26  
Якщо кумедне, то що з рейтингом IMDb?
nikonkol 
Новенький


З нами з: 12.11.14
Востаннє: 07.12.16
Повідомлень: 4

2016-10-31 12:20  
Якщо дивились попередні частини, то можна глянути разок.
Не розумію тільки до чого тут переклад "взяття Бастилії", якщо там revolution. До того ж і у фільмі про то не йдеться

Ваш часовий пояс: GMT + 2 Години

Нова тема   Відповісти