Завантажити та скачати торренти українською


Кейт і Мім-Мім / Kate and Mim-Mim (Сезон 1, 49 серії з 51) (2014) AVC

Нові коментарі

Нова тема   Відповісти
Автор Повідомлення
sergiyko.5 
VIP


З нами з: 25.02.16
Востаннє: 07.12.16
Повідомлень: 481

2016-10-01 13:40  
Кейт і Мім-Мім / Kate and Mim-Mim (Сезон 1, 49 серії з 51) (2014) AVC

Кейт і Мім-Мім / Kate and Mim-Mim (Сезон 1, 49 серії з 51) (2014) AVC

Жанр: Анімація для дітей
Країна: Канада
Режисер: Себастьян Бродін, Клінт Батлер, Джеймс Корігал

Опис:
У маленької Кейт є найкращий друг – її плюшевий кролик Мім-Мім. І разом вони залюбки подорожують дивовижним уявним світом, де не існує нічого неможливого! Там вона може бути будь-ким – від принцеси до справжнього пірата. А головне – у цьому фантастичному світі вона завжди знаходить вирішення своїх проблем і отримує відповіді на важливі питання.

Як Кейт навчитися їздити на велосипеді без додаткових коліс? Яке побажання загадає Мім-Мім, коли знайде справжнього джина? Та що вигадає дівчинка, щоб зробити найкращий у світі лимонад?



Тривалість: 00:10:40 серія, загалом 49
Якість відео:

Відео: кодек: , розмір кадру: 704х400, бітрейт: 600 кб/с
Аудіо: мова: українська, переклад: багатоголосий закадровий, аудіокодек: , бітрейт аудіо: 192 кб/с
Джерело озвучення:
Перелік серій:

S01E01.Balloon Buddies
S01E02.Twinkle Twinkle
S01E03.A Case of the Giggles
S01E04.Hiccups and Night Fun
S01E05.Rip Roaring Race
S01E06.The Need for Seed
S01E07.Colour Me Happy
S01E08.Kittens and Mittens
S01E09.Tail Tale
S01E10.Mirror Mirror
S01E11.Boomer Size
S01E12.Mim-Mim's Moon Mishap
S01E13.Tee Hee Rex
S01E14.Mega Music Maker
S01E17.Cloud Castle
S01E18.Snow Bowling
S01E19.Valentine Friends
S01E20.A Storybook Ending
S01E21.Snifferific
S01E22.Summer Funday Drive
S01E23.Mega Mim
S01E24.Kate the Great
S01E25.Clean Sweep
S01E26.Princess Kate
S01E27.Lighter Than Air
S01E28.Gobble's Gift
S01E29.A Christmas Wish
S01E30.Babysitting Squoosh
S01E31.Chilly the Snowman
S01E32.The Curious Case of the Chamelippoo
S01E33.Bubble Subble
S01E34.Kate's Dragon Quest
S01E35.Butterfly Flowers
S01E36.Kate's Turtle Drive
S01E37.Make Up a Game Day
S01E38.Lily's Cafe
S01E39.Leapfrog Underdog
S01E40.The Big Idea Box
S01E41.Happy Mim Day
S01E42.Super Kate
S01E43.Boom Chicka Bees
S01E44.The Mimiloo Zoo
S01E45.Bunch o' Boomers
S01E46.Lily and the Unicorn
S01E47.Small Wonders
S01E48.Mim-Mim's Teenie Genie
S01E49.Rainbow Hoppers
S01E50.Follow the Leader
S01E51.Treasure of Tut-n-Bunny
Інформація про файл:
General
Complete name : E:\Torrents\Mult\Kate and Mim-Mim 2014 \S01E01.Balloon Buddies.mp4
Format : MPEG-4
Format profile : Base Media
Codec ID : isom (isom/iso2/avc1/mp41)
File size : 62.2 MiB
Duration : 10mn 41s
Overall bit rate : 814 Kbps
Writing application : Lavf54.63.104

Video
ID : 1
Format : AVC
Format/Info : Advanced Video Codec
Format profile : [email protected]
Format settings, CABAC : Yes
Format settings, ReFrames : 5 frames
Codec ID : avc1
Codec ID/Info : Advanced Video Coding
Duration : 10mn 41s
Bit rate : 616 Kbps
Width : 704 pixels
Height : 400 pixels
Display aspect ratio : 16:9
Frame rate mode : Constant
Frame rate : 25.000 fps
Color space : YUV
Chroma subsampling : 4:2:0
Bit depth : 8 bits
Scan type : Progressive
Bits/(Pixel*Frame) : 0.088
Stream size : 47.1 MiB (76%)

Audio
ID : 2
Format :
Format/Info : Advanced Audio Codec
Format profile : LC
Codec ID : 40
Duration : 10mn 41s
Duration_LastFrame : -21ms
Bit rate mode : Constant
Bit rate : 192 Kbps
Channel(s) : 2 channels
Channel positions : Front: L R
Sampling rate : 48.0 KHz
Frame rate : 46.875 fps (1024 spf)
Compression mode : Lossy
Stream size : 14.7 MiB (24%)
Language : Ukrainian
Default : Yes
Alternate group : 1
Скріншоти:


Автор запису та ріпу: sergiyko


Бронзовий реліз (на рейтинг впливає 75% завантаженого)
 Трекер:    Зареєстрований   

Завантажити / скачати мультфільм українською



відео для новачків



 Зареєстрований:   2016-10-01 13:45
 Розмір:   2.87 GB 
 Оцінка мультсеріалу:   10/10 (Голосів: 2)
   
peaman 
Новенький


З нами з: 23.08.13
Востаннє: 11.11.16
Повідомлень: 1

2016-11-02 08:07  
роздайте будь ласка
Ваш часовий пояс: GMT + 2 Години

Нова тема   Відповісти