Завантажити та скачати торренти українською


Аліса в Задзеркаллі / Alice Through the Looking Glass (2016) 1080p 3D [HalfOverUnder] Ukr/Eng | Sub Eng

Нові коментарі

Нова тема   Відповісти
Автор Повідомлення
-VipeR- 
VIP


З нами з: 17.07.08
Востаннє: 09.12.16
Повідомлень: 275

2016-10-01 10:54  
Аліса в Задзеркаллі / Alice Through the Looking Glass (2016) 1080p 3D [HalfOverUnder] Ukr/Eng | Sub Eng

Аліса в Задзеркаллі / Alice Through the Looking Glass (2016) 1080p 3D [HalfOverUnder] Ukr/Eng | Sub Eng


Жанр: пригодницький, фентезі, сімейний
Країна: США, Велика Британія



Кінокомпанія: Legend3D, Roth Films, Team Todd, Tim Burton Productions, Walt Disney Pictures
Режисер: Джеймс Бобін
Актори: Міа Васиковська, Джонні Депп, Енн Хетеуей, Хелена Бонем Картер, Алан Рікман, Річард Армітедж, Саша Барон Коен

Сюжет:
Та сама Аліса, яка стала успіхом 2010-го, повертається! Творці популярного сучасного фентезі запрошують у дивовижну пригоду, зняту за мотивами бестселера «Аліса в Задзеркаллі». Зробивши крок у Дзеркало, Аліса потрапляє у нову невідому реальність... Сон, вигадка, ілюзія, чи справжнісіньке божевілля?! Фантастичний калейдоскоп яскравих героїв, блискучий зірковий склад, тонкий гумор і графіка нового покоління — ви неодмінно повірите всьому, що побачите.


Тривалість: 01:52:57
Якість: 1080p 3D [HalfOverUnder] by ash61
Відео:
кодек:
розмір кадру: 1920 х 1080
бітрейт: 18.6 мбіт/c

Аудіо # 1:
мова: українська
переклад: професійний дубльований
кодек: 5.1
бітрейт: 1536 кб/с

Аудіо # 2:
мова: українська
переклад: професійний дубльований
кодек: 5.1
бітрейт: 640 кб/с

Аудіо # 3:
мова: англійська
переклад: оригінал
кодек: 5.1
бітрейт: 640 кб/с

Субтитри: (Форсовані)
мова: українська
тип: програмні (м'які)
формат: *.srt

Субтитри:
мова: англійська
тип: програмні (м'які)
формат: *.srt
MediaInfo
Код:
General
Unique ID                      : 215681607862199136493776707361021204492 (0xA242C446AEE3CA9FB39A909783AD980C)
Complete name                  : D:\3D\Художні\Alice Through the Looking Glass (2016) [Ukr,Eng sub.Eng] 1080p 3D [HalfOverUnder] [Hurtom].mkv
Format                         : Matroska
Format version                 : Version 4 / Version 2
File size                      : 16.9 GiB
Duration                       : 1h 53mn
Overall bit rate               : 21.4 Mbps
Movie name                     : Аліса в Задзеркаллі / Alice Through the Looking Glass (2016) у 3D
Released date                  : 2016
Encoded date                   : UTC 2016-10-01 08:09:48
Writing application            : mkvmerge v8.8.0 ('Wind at my back') 64bit
Writing library                : libebml v1.3.3 + libmatroska v1.4.4
Cover                          : Yes
Comment                        : http://www.imdb.com/title/tt2567026/
Attachments                    : cover.jpg
ARTIST                         : Джонні Депп / Johnny Depp, Міа Васиковська / Mia Wasikowska, Ен Гетевей / Anne Hathaway, Хелена Бонем Картер / Helena Bonham Carter, Алан Рікман / Alan Rickman, Річард Армітедж / Richard Armitage, Саша Барон Коен / Sacha Baron Cohen та інші
DIRECTOR                       : Джеймс Бобін / James Bobin
GENRE                          : фентезі, пригодницький, сімейний
SYNOPSIS                       : Та сама Аліса, яка стала успіхом 2010-го, повертається! Творці популярного сучасного фентезі запрошують у дивовижну пригоду, зняту за мотивами бестселера «Аліса в Задзеркаллі». Зробивши крок у Дзеркало, Аліса потрапляє у нову невідому реальність... Сон, вигадка, ілюзія, чи справжнісіньке божевілля?! Фантастичний калейдоскоп яскравих героїв, блискучий зірковий склад, тонкий гумор і графіка нового покоління — ви неодмінно повірите всьому, що побачите.
Url                            : https://toloka.to/t76372

Video
ID                             : 1
Format                         : AVC
Format/Info                    : Advanced Video Codec
Format profile                 : [email protected]
Format settings, CABAC         : Yes
Format settings, ReFrames      : 4 frames
Codec ID                       : V_MPEG4/ISO/AVC
Duration                       : 1h 53mn
Bit rate                       : 18.6 Mbps
Width                          : 1 920 pixels
Height                         : 1 080 pixels
Display aspect ratio           : 16:9
Frame rate mode                : Constant
Frame rate                     : 23.976 (24000/1001) fps
Color space                    : YUV
Chroma subsampling             : 4:2:0
Bit depth                      : 8 bits
Scan type                      : Progressive
Bits/(Pixel*Frame)             : 0.375
Stream size                    : 14.7 GiB (87%)
Title                          : Alice Through the Looking Glass
Writing library                : core 146 r2538 121396c
Encoding settings              : cabac=1 / ref=4 / deblock=1:-3:-3 / analyse=0x3:0x113 / me=umh / subme=10 / psy=1 / psy_rd=1.00:0.00 / mixed_ref=1 / me_range=32 / chroma_me=1 / trellis=2 / 8x8dct=1 / cqm=0 / deadzone=21,11 / fast_pskip=1 / chroma_qp_offset=-2 / threads=12 / lookahead_threads=3 / sliced_threads=0 / nr=0 / decimate=1 / interlaced=0 / bluray_compat=0 / constrained_intra=0 / bframes=10 / b_pyramid=2 / b_adapt=2 / b_bias=0 / direct=3 / weightb=1 / open_gop=0 / weightp=2 / keyint=250 / keyint_min=23 / scenecut=40 / intra_refresh=0 / rc_lookahead=60 / rc=crf / mbtree=1 / crf=15.0 / qcomp=0.70 / qpmin=0 / qpmax=69 / qpstep=4 / vbv_maxrate=40000 / vbv_bufsize=30000 / crf_max=0.0 / nal_hrd=none / filler=0 / frame-packing=4 / ip_ratio=1.40 / aq=1:0.70
Language                       : English
Default                        : Yes
Forced                         : No

Audio #1
ID                             : 2
Format                         :
Format/Info                    : Digital Theater Systems
Mode                           : 16
Format settings, Endianness    : Big
Codec ID                       : A_DTS
Duration                       : 1h 52mn
Bit rate mode                  : Constant
Bit rate                       : 1 509 Kbps
Channel(s)                     : 6 channels
Channel positions              : Front: L C R, Side: L R, LFE
Sampling rate                  : 48.0 KHz
Frame rate                     : 93.750 fps (512 spf)
Bit depth                      : 24 bits
Compression mode               : Lossy
Stream size                    : 1.19 GiB (7%)
Title                          : Dub, 5.1 1509 Kbps [Hurtom]
Language                       : Ukrainian
Default                        : Yes
Forced                         : No

Audio #2
ID                             : 3
Format                         : AC-3
Format/Info                    : Audio Coding 3
Mode extension                 : CM (complete main)
Format settings, Endianness    : Big
Codec ID                       : A_AC3
Duration                       : 1h 52mn
Bit rate mode                  : Constant
Bit rate                       : 640 Kbps
Channel(s)                     : 6 channels
Channel positions              : Front: L C R, Side: L R, LFE
Sampling rate                  : 48.0 KHz
Frame rate                     : 31.250 fps (1536 spf)
Compression mode               : Lossy
Stream size                    : 517 MiB (3%)
Title                          : Dub, 5.1 640 Kbps [Hurtom]
Language                       : Ukrainian
Default                        : No
Forced                         : No

Audio #3
ID                             : 4
Format                         : AC-3
Format/Info                    : Audio Coding 3
Mode extension                 : CM (complete main)
Format settings, Endianness    : Big
Codec ID                       : A_AC3
Duration                       : 1h 52mn
Bit rate mode                  : Constant
Bit rate                       : 640 Kbps
Channel(s)                     : 6 channels
Channel positions              : Front: L C R, Side: L R, LFE
Sampling rate                  : 48.0 KHz
Frame rate                     : 31.250 fps (1536 spf)
Compression mode               : Lossy
Stream size                    : 517 MiB (3%)
Title                          : Original, 5.1 640 Kbps
Language                       : English
Default                        : No
Forced                         : No

Text #1
ID                             : 5
Format                         : UTF-8
Codec ID                       : S_TEXT/UTF8
Codec ID/Info                  : UTF-8 Plain Text
Duration                       : 1h 43mn
Bit rate                       : 0 bps
Count of elements              : 5
Stream size                    : 203 Bytes (0%)
Title                          : UKR FORCED
Language                       : Ukrainian
Default                        : Yes
Forced                         : Yes

Text #2
ID                             : 6
Format                         : UTF-8
Codec ID                       : S_TEXT/UTF8
Codec ID/Info                  : UTF-8 Plain Text
Duration                       : 1h 52mn
Bit rate                       : 50 bps
Count of elements              : 1797
Stream size                    : 41.3 KiB (0%)
Title                          : Eng SDH
Language                       : English
Default                        : No
Forced                         : No

Menu
00:00:00.000                   : en:00:00:00.000
00:04:33.190                   : en:00:04:33.190
00:07:24.235                   : en:00:07:24.235
00:12:07.435                   : en:00:12:07.435
00:16:39.790                   : en:00:16:39.790
00:22:47.616                   : en:00:22:47.616
00:24:59.623                   : en:00:24:59.623
00:30:18.233                   : en:00:30:18.233
00:35:29.794                   : en:00:35:29.794
00:41:32.990                   : en:00:41:32.990
00:45:20.051                   : en:00:45:20.051
00:51:35.676                   : en:00:51:35.676
00:54:11.039                   : en:00:54:11.039
00:57:40.123                   : en:00:57:40.123
01:04:18.521                   : en:01:04:18.521
01:09:18.988                   : en:01:09:18.988
01:12:46.279                   : en:01:12:46.279
01:18:07.391                   : en:01:18:07.391
01:23:20.245                   : en:01:23:20.245
01:27:34.749                   : en:01:27:34.749
01:32:15.947                   : en:01:32:15.947
01:36:40.461                   : en:01:36:40.461
01:40:12.590                   : en:01:40:12.590
01:43:14.814                   : en:01:43:14.814
Скріншоти





Джерело: &

Відео для перегляду на 3D обладнанні!


 Трекер:    Зареєстрований   

Завантажити / скачати фільм українською



відео для новачків



 Зареєстрований:   2016-10-01 10:54
 Розмір:   16.95 GB 
 Оцінка фільму:   7.4/10 (Голосів: 5)
   
МИТЯ 
Свій


З нами з: 03.10.09
Востаннє: 06.12.16
Повідомлень: 107

2016-11-11 12:40  
Це таке відео ніяке чи просто скріни не дуже вдались?
igor911 
Відео Гуртом
Відео Гуртом


З нами з: 18.01.08
Востаннє: 09.12.16
Повідомлень: 5195

2016-11-11 12:42  
МИТЯ, це 3Д.
-VipeR- написано:
Відео для перегляду на 3D обладнанні!

МИТЯ 
Свій


З нами з: 03.10.09
Востаннє: 06.12.16
Повідомлень: 107

2016-11-11 12:44  
Це я бачу, просто скріни якісь світлі, наче яскравість викрутили на максимум
-VipeR- 
VIP


З нами з: 17.07.08
Востаннє: 09.12.16
Повідомлень: 275

2016-11-18 16:18  
МИТЯ написано:
Це я бачу, просто скріни якісь світлі, наче яскравість викрутили на максимум

профіль "яскравий" був у налаштуваннях відео.

МИТЯ 
Свій


З нами з: 03.10.09
Востаннє: 06.12.16
Повідомлень: 107

2016-11-18 16:19  
-VipeR-
Завантажив, в файлі все ок, дякую

Ваш часовий пояс: GMT + 2 Години

Нова тема   Відповісти