Завантажити та скачати торренти українською


Таємниця Рагнарока / Gåten Ragnarok (2013) AVC Ukr/Nor | Sub Eng

Нові коментарі

Нова тема   Відповісти
Автор Повідомлення
krigg070 
Відео Гуртом - фільмокрай
Відео Гуртом - фільмокрай


З нами з: 29.10.14
Востаннє: 04.12.16
Повідомлень: 346

2016-09-29 14:35  
Таємниця Рагнарока / Gåten Ragnarok (2013) AVC Ukr/Nor | Sub Eng

Таємниця Рагнарока / Gåten Ragnarok (2013) AVC Ukr/Nor | Sub Eng


Жанр: пригодницький, фентезі, бойовик
Країна: Норвегія



Кінокомпанія: Canal+, Fantefilm, Film Väst
Режисер: Міккель Бренне Саннемусе
Актори: Пол Сверре Хаген, Миколай Клеве Брок, Софія Хелін, Марія Аннетт Таннеред Берглю, Юліан Подольські, Бйорн Сундквіст та інші

Сюжет:
Археолог Сігерд Свендсен вже багато років одержимий історією судна вікінгів Осберг. Єдиний напис, знайдений на цьому кораблі написаний мовою рун і говорить: «людина знає мало». Сігерд впевнений, що судно Осберг приховує відповідь на таємницю про Рагнарок. Коли його друг Аллан знаходить подібні руни на камені з півночі Норвегії, Сігерд переконується, що руни – це карта скарбів. Разом вони відправляються в експедицію, яка заводить їх у «нейтральну зону» між Норвегією і Росією, що не населена вже багато десятиліть. Тут Сігерд знаходить справжнє значення рун, які зберігають жахливу таємницю.


Тривалість: 01:41:07
Якість: AVC
Відео:
кодек:
розмір кадру: 1 024 х 428
бітрейт: 1 990 кб/с

Аудіо # 1:
мова: українська
переклад: багатоголосий закадровий
кодек: 2.0
бітрейт: 192 кб/с

Аудіо # 2:
мова: норвезька
переклад: оригінал
кодек: 5.1
бітрейт: 448 кб/с

Субтитри:
мова: англійська
тип: програмні (м'які)
формат: *.srt

Скріншоти

MediaInfo
Код:
Video
ID                             : 1
Format                         : AVC
Format/Info                    : Advanced Video Codec
Format profile                 : [email protected]
Format settings, CABAC         : Yes
Format settings, ReFrames      : 10 frames
Codec ID                       : V_MPEG4/ISO/AVC
Duration                       : 1h 41mn
Bit rate                       : 1 990 Kbps
Width                          : 1 024 pixels
Height                         : 428 pixels
Display aspect ratio           : 2.40:1
Frame rate mode                : Constant
Frame rate                     : 24.000 fps
Color space                    : YUV
Chroma subsampling             : 4:2:0
Bit depth                      : 8 bits
Scan type                      : Progressive
Bits/(Pixel*Frame)             : 0.189
Stream size                    : 1.37 GiB (74%)
Writing library                : core 142 r2389+41 02cb608 tMod [[email protected]:2:0 X86_64]
Encoding settings              : cabac=1 / ref=10 / deblock=1:-2:-2 / analyse=0x3:0x113 / me=umh / subme=11 / psy=1 / fade_compensate=0.00 / psy_rd=1.00:0.05 / mixed_ref=1 / me_range=48 / chroma_me=1 / trellis=2 / 8x8dct=1 / cqm=0 / deadzone=21,11 / fast_pskip=0 / chroma_qp_offset=-3 / threads=6 / lookahead_threads=1 / sliced_threads=0 / nr=0 / decimate=0 / interlaced=0 / bluray_compat=0 / constrained_intra=0 / fgo=0 / bframes=11 / b_pyramid=2 / b_adapt=2 / b_bias=0 / direct=3 / weightb=1 / open_gop=0 / weightp=2 / keyint=240 / keyint_min=24 / scenecut=40 / intra_refresh=0 / rc=2pass / mbtree=0 / bitrate=1990 / ratetol=1.0 / qcomp=0.60 / qpmin=0:0:0 / qpmax=69:69:69 / qpstep=4 / cplxblur=20.0 / qblur=0.5 / ip_ratio=1.40 / pb_ratio=1.30 / aq=2:0.80 / aq-sensitivity=10.00 / aq-factor=1.00:1.00:1.00 / aq2=0 / aq3=0
Default                        : No
Forced                         : No
Color range                    : Limited
Color primaries                : BT.709
Transfer characteristics       : BT.709
Matrix coefficients            : BT.709

Audio #1
ID                             : 2
Format                         : AC-3
Format/Info                    : Audio Coding 3
Mode extension                 : CM (complete main)
Format settings, Endianness    : Big
Codec ID                       : A_AC3
Duration                       : 1h 41mn
Bit rate mode                  : Constant
Bit rate                       : 192 Kbps
Channel(s)                     : 2 channels
Channel positions              : Front: L R
Sampling rate                  : 48.0 KHz
Frame rate                     : 31.250 fps (1536 spf)
Compression mode               : Lossy
Stream size                    : 139 MiB (7%)
Title                          : 2.0 @ 192 kbps - Новий канал
Language                       : Ukrainian
Default                        : Yes
Forced                         : No

Audio #2
ID                             : 3
Format                         : AC-3
Format/Info                    : Audio Coding 3
Mode extension                 : CM (complete main)
Format settings, Endianness    : Big
Codec ID                       : A_AC3
Duration                       : 1h 41mn
Bit rate mode                  : Constant
Bit rate                       : 448 Kbps
Channel(s)                     : 6 channels
Channel positions              : Front: L C R, Side: L R, LFE
Sampling rate                  : 48.0 KHz
Frame rate                     : 31.250 fps (1536 spf)
Compression mode               : Lossy
Stream size                    : 324 MiB (17%)
Title                          : 5.1 @ 448 kbps - Original
Language                       : Norwegian
Default                        : No
Forced                         : No

Text
ID                             : 4
Format                         : UTF-8
Codec ID                       : S_TEXT/UTF8
Codec ID/Info                  : UTF-8 Plain Text
Language                       : English
Default                        : No
Forced                         : No

Menu
00:00:00.000                   : :Chapter 01
00:07:07.666                   : :Chapter 02
00:16:23.166                   : :Chapter 03
00:24:55.000                   : :Chapter 04
00:33:32.541                   : :Chapter 05
00:40:07.416                   : :Chapter 06
00:52:19.250                   : :Chapter 07
00:58:54.666                   : :Chapter 08
01:07:07.000                   : :Chapter 09
01:15:54.291                   : :Chapter 10
01:26:06.375                   : :Chapter 11
01:36:25.458                   : :Chapter 12


Джерело: && MediaClub


 Трекер:    Зареєстрований   

Завантажити / скачати фільм українською



відео для новачків



 Зареєстрований:   2016-09-29 14:35
 Розмір:   1.86 GB 
 Оцінка фільму:   8.5/10 (Голосів: 21)
   
huntercrow 
Новенький


З нами з: 17.07.11
Востаннє: 16.10.16
Повідомлень: 2

2016-09-30 00:33  
дуже слабий фільм, для себе то я витратив час на нього.
sansaclip-r 
Частий відвідувач


З нами з: 25.12.08
Востаннє: 12.11.16
Повідомлень: 39

2016-10-08 12:18  
Збирався написати те саме що й huntercrow;
У фільмі вадчувається бажання режисера створити штучну зацікавленість, але насправді все дуже слабо.
Виключив на 24 хвилині.

Ваш часовий пояс: GMT + 2 Години

Нова тема   Відповісти