Завантажити та скачати торренти українською


Аліса в Задзеркаллі / Alice Through the Looking Glass (2016) 720p Ukr/Eng | Sub Eng

Нові коментарі

Нова тема   Відповісти
Автор Повідомлення
Anonymous 







2016-09-29 14:07  
Аліса в Задзеркаллі / Alice Through the Looking Glass (2016) 720p Ukr/Eng | Sub Eng

Аліса в Задзеркаллі / Alice Through the Looking Glass (2016) 720p Ukr/Eng | Sub Eng

Повний набір українських постерів
























повнорозмірні зображення відкриються по кліку (з натиснутим CTRL чи кліком середньою кнопкою мишки - у новій вкладці)


Жанр: фентезі, пригодницький, сімейний
Країна: США, Велика Британія



Кінокомпанія: Walt Disney Pictures, Roth Films, Team Todd, Tim Burton Productions, Legend3D
Режисер: Джеймс Бобін / James Bobin
Актори: Джонні Депп / Johnny Depp, Міа Васиковська / Mia Wasikowska, Ен Гетевей / Anne Hathaway, Хелена Бонем Картер / Helena Bonham Carter, Алан Рікман / Alan Rickman, Річард Армітедж / Richard Armitage, Саша Барон Коен / Sacha Baron Cohen та інші

Сюжет:
Та сама Аліса, яка стала успіхом 2010-го, повертається! Творці популярного сучасного фентезі запрошують у дивовижну пригоду, зняту за мотивами бестселера «Аліса в Задзеркаллі». Зробивши крок у Дзеркало, Аліса потрапляє у нову невідому реальність... Сон, вигадка, ілюзія, чи справжнісіньке божевілля?! Фантастичний калейдоскоп яскравих героїв, блискучий зірковий склад, тонкий гумор і графіка нового покоління — ви неодмінно повірите всьому, що побачите.

Ще два українських трейлера




Рейтинг MPAA: PG - рекомендується присутність батьків
Вікова категорія: 12+

Тривалість: 01:52:57
Якість: 720p
Відео:
кодек:
розмір кадру: 1280 х 690
бітрейт: 5216 Кбіт/с [crf=18.7]

Аудіо # 1:
мова: українська
переклад: професійний дубльований
кодек: 5.1
бітрейт: 1509 Кбіт/с

Аудіо # 2:
мова: українська
переклад: професійний дубльований
кодек: 5.1
бітрейт: 640 Кбіт/с
примітка: українські доріжки однакові за змістом і відрізняються лише кодеком

Аудіо # 3:
мова: англійська
переклад: оригінал
кодек: 5.1
бітрейт: 640 Кбіт/с

Субтитри #1:
мова: українська (форсовані)
тип: програмні (м'які)
формат: *.srt

Субтитри #2:
мова: англійська
тип: програмні (м'які)
формат: *.srt

Збережено оригінальні розділи, як на Blu-ray.
MediaInfo
Код:
Complete name               : Alice Through the Looking Glass (2016) [Ukr,Eng sub.Eng] 720p [Hurtom].mkv
Format                      : Matroska
Format version              : Version 4 / Version 2
File size                   : 6.32 GiB
Duration                    : 1 h 52 min
Overall bit rate            : 8 008 kb/s
Movie name                  : Аліса в Задзеркаллі / Alice Through the Looking Glass (2016) [Ukr,Eng sub.Eng] 720p [Hurtom] by igor911
Released date               : 2016
Cover                       : Yes
Comment                     : http://www.imdb.com/title/tt2567026/
Attachments                 : cover.jpg
ARTIST                      : Джонні Депп / Johnny Depp, Міа Васиковська / Mia Wasikowska, Ен Гетевей / Anne Hathaway, Хелена Бонем Картер / Helena Bonham Carter, Алан Рікман / Alan Rickman, Річард Армітедж / Richard Armitage, Саша Барон Коен / Sacha Baron Cohen та інші
DIRECTOR                    : Джеймс Бобін / James Bobin
GENRE                       : фентезі, пригодницький, сімейний
SYNOPSIS                    : Та сама Аліса, яка стала успіхом 2010-го, повертається! Творці популярного сучасного фентезі запрошують у дивовижну пригоду, зняту за мотивами бестселера «Аліса в Задзеркаллі». Зробивши крок у Дзеркало, Аліса потрапляє у нову невідому реальність... Сон, вигадка, ілюзія, чи справжнісіньке божевілля?! Фантастичний калейдоскоп яскравих героїв, блискучий зірковий склад, тонкий гумор і графіка нового покоління — ви неодмінно повірите всьому, що побачите.
Url                         : https://toloka.to/t76372

Video
ID                          : 1
Format                      : AVC
Format/Info                 : Advanced Video Codec
Format profile              : [email protected]
Format settings, CABAC      : Yes
Format settings, ReFrames   : 9 frames
Codec ID                    : V_MPEG4/ISO/AVC
Duration                    : 1 h 52 min
Bit rate                    : 5 216 kb/s
Width                       : 1 280 pixels
Height                      : 690 pixels
Display aspect ratio        : 1.85:1
Frame rate mode             : Constant
Frame rate                  : 23.976 (24000/1001) FPS
Color space                 : YUV
Chroma subsampling          : 4:2:0
Bit depth                   : 8 bits
Scan type                   : Progressive
Bits/(Pixel*Frame)          : 0.246
Stream size                 : 4.12 GiB (65%)
Title                       : Аліса в Задзеркаллі / Alice Through the Looking Glass (2016) 720p
Writing library             : core 148 r2705kMod 3f5ed56
Encoding settings           : cabac=1 / ref=9 / deblock=1:-3:-3 / analyse=0x3:0x133 / me=umh / subme=11 / psy=1 / fade_compensate=0.00 / psy_rd=1.05:1.00 / mixed_ref=1 / me_range=32 / chroma_me=1 / trellis=2 / 8x8dct=1 / cqm=0 / deadzone=21,11 / fast_pskip=0 / chroma_qp_offset=-4 / threads=12 / lookahead_threads=2 / sliced_threads=0 / nr=0 / decimate=0 / interlaced=0 / bluray_compat=0 / constrained_intra=0 / fgo=0 / bframes=8 / b_pyramid=2 / b_adapt=2 / b_bias=0 / direct=3 / weightb=1 / open_gop=0 / weightp=2 / keyint=240 / keyint_min=23 / scenecut=40 / intra_refresh=0 / rc_lookahead=60 / rc=crf / mbtree=0 / crf=18.7000 / qcomp=0.60 / qpmin=0 / qpmax=69 / qpstep=4 / vbv_maxrate=40000 / vbv_bufsize=30000 / crf_max=0.0 / nal_hrd=none / filler=0 / ip_ratio=1.40 / pb_ratio=1.30 / aq=1:1.00
Language                    : English
Default                     : Yes
Forced                      : No

Audio #1
ID                          : 2
Format                      :
Format/Info                 : Digital Theater Systems
Mode                        : 16
Format settings, Endianness : Big
Codec ID                    : A_DTS
Duration                    : 1 h 52 min
Bit rate mode               : Constant
Bit rate                    : 1 509 kb/s
Channel(s)                  : 6 channels
Channel positions           : Front: L C R, Side: L R, LFE
Sampling rate               : 48.0 kHz
Frame rate                  : 93.750 FPS (512 spf)
Bit depth                   : 24 bits
Compression mode            : Lossy
Stream size                 : 1.19 GiB (19%)
Title                       : Dub, 5.1 1509 Kbps [Hurtom]
Language                    : Ukrainian
Default                     : Yes
Forced                      : No

Audio #2
ID                          : 3
Format                      : AC-3
Format/Info                 : Audio Coding 3
Mode extension              : CM (complete main)
Format settings, Endianness : Big
Codec ID                    : A_AC3
Duration                    : 1 h 52 min
Bit rate mode               : Constant
Bit rate                    : 640 kb/s
Channel(s)                  : 6 channels
Channel positions           : Front: L C R, Side: L R, LFE
Sampling rate               : 48.0 kHz
Frame rate                  : 31.250 FPS (1536 spf)
Compression mode            : Lossy
Stream size                 : 517 MiB (8%)
Title                       : Dub, 5.1 640 Kbps [Hurtom]
Language                    : Ukrainian
Default                     : No
Forced                      : No

Audio #3
ID                          : 4
Format                      : AC-3
Format/Info                 : Audio Coding 3
Mode extension              : CM (complete main)
Format settings, Endianness : Big
Codec ID                    : A_AC3
Duration                    : 1 h 52 min
Bit rate mode               : Constant
Bit rate                    : 640 kb/s
Channel(s)                  : 6 channels
Channel positions           : Front: L C R, Side: L R, LFE
Sampling rate               : 48.0 kHz
Frame rate                  : 31.250 FPS (1536 spf)
Compression mode            : Lossy
Stream size                 : 517 MiB (8%)
Title                       : Original, 5.1 640 Kbps
Language                    : English
Default                     : No
Forced                      : No

Text #1
ID                          : 5
Format                      : UTF-8
Codec ID                    : S_TEXT/UTF8
Codec ID/Info               : UTF-8 Plain Text
Duration                    : 1 h 43 min
Bit rate                    : 0 b/s
Count of elements           : 5
Stream size                 : 203 Bytes (0%)
Title                       : UKR FORCED
Language                    : Ukrainian
Default                     : Yes
Forced                      : Yes

Text #2
ID                          : 6
Format                      : UTF-8
Codec ID                    : S_TEXT/UTF8
Codec ID/Info               : UTF-8 Plain Text
Duration                    : 1 h 52 min
Bit rate                    : 50 b/s
Count of elements           : 1797
Stream size                 : 41.3 KiB (0%)
Title                       : Eng SDH
Language                    : English
Default                     : No
Forced                      : No

Menu
00:00:00.000                : en:00:00:00.000
00:04:33.190                : en:00:04:33.190
00:07:24.235                : en:00:07:24.235
00:12:07.435                : en:00:12:07.435
00:16:39.790                : en:00:16:39.790
00:22:47.616                : en:00:22:47.616
00:24:59.623                : en:00:24:59.623
00:30:18.233                : en:00:30:18.233
00:35:29.794                : en:00:35:29.794
00:41:32.990                : en:00:41:32.990
00:45:20.051                : en:00:45:20.051
00:51:35.676                : en:00:51:35.676
00:54:11.039                : en:00:54:11.039
00:57:40.123                : en:00:57:40.123
01:04:18.521                : en:01:04:18.521
01:09:18.988                : en:01:09:18.988
01:12:46.279                : en:01:12:46.279
01:18:07.391                : en:01:18:07.391
01:23:20.245                : en:01:23:20.245
01:27:34.749                : en:01:27:34.749
01:32:15.947                : en:01:32:15.947
01:36:40.461                : en:01:36:40.461
01:40:12.590                : en:01:40:12.590
01:43:14.814                : en:01:43:14.814


Джерело: &


 Трекер:    Зареєстрований   

Завантажити / скачати фільм українською



відео для новачків



 Зареєстрований:   2016-09-29 14:45
 Розмір:   6.32 GB 
 Оцінка фільму:   5.4/10 (Голосів: 21)
   
bot 
робот


З нами з: 30.09.07
Востаннє: 26.05.05
Повідомлень: 16031

2016-09-29 14:45  
Тему перенесено з Анонси релізів до форуму Фільми в HD


igor911

sergiyko.5 
VIP


З нами з: 25.02.16
Востаннє: 09.12.16
Повідомлень: 488

2016-09-29 23:23  
igor911
сам зробив "якісний" не сцен-ріп? Чи як завжди?

Дійсне джерело вкажи, відео-гуртом навряд чи кодувало.

Додано через 2 хвилини 50 секунд:

А також, якими прогами користувався для перетворення доріжки -HD MA 5.1, ~3838.00 kbps в 5.1 1509 kbps?

Anonymous 







2016-09-30 05:41  
sergiyko.5
нічого не маю проти реліз-групи Veto, чий ріп ти взяв для свого релізу, але зверни увагу на краї червоної стрічки на капелюшку Капелюшника, на твоєму скріні видно сходи/пилку/розмитість:
реліз сергійко<----------> цей ріп


Звичайно, це не чисте порівняння скріншотів, просто взяв схожі кадри з опису релізів, але все ж.
Щодо джерела - вказав "інше", яке було в майстрі створення релізів. Якби це була якась реліз-група - завжди вказую це в медіаінфо.

Щодо звуку - то я не знаю, а якби й знав, то не мав би права розголошувати інформації. Але впевнений 100%, що він не "дутий" і робився тим софтом, що дає максимальну якість

sergiyko.5 
VIP


З нами з: 25.02.16
Востаннє: 09.12.16
Повідомлень: 488

2016-09-30 08:31  
igor911

1. для перетворення доріжок -HD MA 5.1 використовують прогу -HD Master Audio Suite

2. реліз в якості 720р я виклав перший, потім оновив перший і в нормальному інтернетсуспільстві треба спитати релізера чи буде він оновлювати до кращої якості, а потім видаляти реліз у разі відмови. у вас ( на гуртом) працює нечесна схема, яка відвертає релізерів від бажання працювати на користь користувачів. ( тільки не треба говорити що ти робив анонс, повідомлення "720p" це не анонс: http://toloka.to/t76053#832441 )

І ти, як представник управління сайту, повинен бути зацікавлений у чесній конкуренції та розвитку, залучення нових релізерів.

casper101 
Свій


З нами з: 03.12.09
Востаннє: 09.12.16
Повідомлень: 94

2016-09-30 08:41  
чому немає золота на тиждень для заохочення???
Anonymous 







2016-09-30 09:31  
sergiyko.5, якби ти був адекватною людиною, то так би й було. Навіть більше - тобі б запропонували увійти в команду, надавали б доріжки і т.д. Але коли на будь-яке зауваження, навіть дрібне технічне (вказати джерело чи виправити помилки в оформленні) ти реагуєш якщо не брудною лайкою, то в стилі "я тут бог, а ви мені заважаєте", ніхто не хоче з тобою зв'язуватись.
У тебе є претензії по перенесенню твого релізу в Архів? Навіть не беручи до уваги різницю в якості відео, кращої якості української доріжки у цьому релізі цілком достатньо для цього.

casper101, слушне зауваження.

sexton 
Новенький


З нами з: 22.07.10
Востаннє: 27.11.16
Повідомлень: 4

2016-10-02 11:36  
Український дубляж - це iTunes чи офіційний з BD?
Anonymous 







2016-10-02 11:40  
sexton, точно не з айтюнсу.
sexton 
Новенький


З нами з: 22.07.10
Востаннє: 27.11.16
Повідомлень: 4

2016-10-04 20:50  
igor911, в одному з ремуксів на АшДеКлюб знайшов доріжку:
Aудио#3: Ukrainian: 48 kHz/24-bit, -HD MA 5.1, ~3838.00 kbps avg (Дубляж, Disney / Buena Vista)

Можливо це вона?
Хотілося б побачити коментар автора...

Anonymous 







2016-10-04 21:45  
sexton, вони взяли її звідси http://toloka.to/t76064
Marivo 
Новенький


З нами з: 17.09.16
Востаннє: 08.12.16
Повідомлень: 3

2016-10-29 09:44  
фільм розчарував(((((
Ваш часовий пояс: GMT + 2 Години

Нова тема   Відповісти