Завантажити та скачати торренти українською


Майлз із майбутнього / Miles from Tomorrowland (Сезон 1) (2015) AVC

Нові коментарі

Нова тема   Відповісти
Автор Повідомлення
sergiyko.5 
VIP


З нами з: 25.02.16
Востаннє: 09.12.16
Повідомлень: 488

2016-09-28 09:35  
Майлз із майбутнього / Miles from Tomorrowland (Сезон 1) (2015) AVC

Майлз із майбутнього / Miles from Tomorrowland (Сезон 1) (2015) AVC

Жанр: мультсеріал, дитячий, пригодницький
Країна: США
Кінокомпанія: Disney
Режисер: Джон Енг / John Eng, Мішель Кенні / Michael Daedalus Kenny...

Українською ролі озвучували:
Майлз - Арсен Шавлюк
Лоретта - Вероніка Лук'яненко
Фібі - Людмила Ардельян
Лео - Володимир Паляниця
Мерк - Володимир Канівець
Стелла - Олена Борозенець
Вотсон, Крік - Максим Кондратюк
Зайлон - В'ячеслав Дудко

Режисер дубляжу: Людмила Ардельян
Перекладач: Катерина Щепковська
Переклад пісень: Катерина Щепковська
Музичний керівник: Тетяна Піроженко


Сюжет:
Майлз із майбутнього - неймовірно цікаві пригоди родини міжгалактичних мандрівників: мами, тата та двох дітлахів. Мама Фібі - капітан корабля, батько Лео механік та інженер. У команді також старша сестра Лоретта, фахівець із техніки, та домашній улюбленець – робостраус Мерк. Сам Майлз зовсім юний, допитливий і дуже веселий. Разом з героями глядачі побувають у космосі, проведуть дослідження нової галактики. У легкій і захоплюючій формі мультсеріалу представлені різноманітні наукові факти зі сфери позаземного простору, зустріч із мешканцями інших світів, вивчення космічних кораблів та надсучасних гаджетів.




Тривалість: 1 серія: 23:02 (цілком серій: 30)

Якість:
Відео: кодек: розмір кадру: 720 х 392 бітрейт: 1050 кб/с
Аудіо: мова: українська переклад: професійний дубльований кодек: 2.0 бітрейт: 192 кб/с
Джерело озвучення:
Перелік серій
01 Шатл-утікач - Катання у коловороті
02 Подорож на крижану планету - Атака флікораксів
03 Рухливий океан - Обмін дослідників
04 Гра починається - Як я врятував літні канікули
05 Спіймати КІТА - Великий Мерк
06 Хто вкрав стелосферу - Котигорошок
07 Зменьшення - Катання с кварконами
08 З днем капітана - Планета рослин
09
10
11 Мама Мерк - Космогонки
12 Пустотливі домашні улюбленці - Гонитва за бластбордом
13 Відімкнені - Засмічені
14 Пригоди на Нептуні - Різні точки зору
15 Супутник із привидами - Штормова ніч у Темній туманності
16 Заморожено їжа - Бувай, мультиліфт
17 Ніч Юрія - Я Стелла
18 Китайський Новий Рік- Щоденники літоцикла
19 У пошуках Скеліга Ро - Вид на межі вимирання
20 Вибух астероїда - Магнітний Мерк
21 Заплутана проблема - Втеча тихоходки
22 Майлз проти вулкана - Полювання на Марсі
23 Дослідна експедиція - Снігова куля
24
25
26
27
28
29
30
Інформація про файл:

General
Unique ID : 250024912596283289124714905515499416630 (0xBC190BEE0E5ED0EBB5020FBDD55F6C36)
Complete name : E:\Torrents\Mult_3\Miles From Tomorrow S01 \S01E01.Runaway Shuttle-Surfin' the Whirlpool.mkv
Format : Matroska
Format version : Version 4 / Version 2
File size : 211 MiB
Duration : 23 min
Overall bit rate : 1 279 kb/s
Movie name : rip by sergiyko
Encoded date : UTC 2016-09-28 08:12:46
Writing application : mkvmerge v9.4.0 ('Knurl') 64bit
Writing library : libebml v1.3.4 + libmatroska v1.4.5

Video
ID : 1
Format : AVC
Format/Info : Advanced Video Codec
Format profile : [email protected]
Format settings, CABAC : Yes
Format settings, ReFrames : 16 frames
Codec ID : V_MPEG4/ISO/AVC
Duration : 23 min
Bit rate : 1 085 kb/s
Width : 720 pixels
Height : 392 pixels
Display aspect ratio : 1.85:1
Frame rate mode : Constant
Frame rate : 25.000 FPS
Color space : YUV
Chroma subsampling : 4:2:0
Bit depth : 8 bits
Scan type : Progressive
Bits/(Pixel*Frame) : 0.154
Stream size : 179 MiB (85%)
Title : S01E01 Runaway Shuttle-Surfin' the Whirlpool
Writing library : core 148 r2705 3f5ed56
Encoding settings : cabac=1 / ref=16 / deblock=1:1:1 / analyse=0x3:0x133 / me=umh / subme=9 / psy=1 / psy_rd=0.40:0.00 / mixed_ref=1 / me_range=16 / chroma_me=1 / trellis=2 / 8x8dct=1 / cqm=0 / deadzone=21,11 / fast_pskip=1 / chroma_qp_offset=-2 / threads=6 / lookahead_threads=1 / sliced_threads=0 / nr=0 / decimate=1 / interlaced=0 / bluray_compat=0 / constrained_intra=0 / bframes=5 / b_pyramid=2 / b_adapt=2 / b_bias=0 / direct=3 / weightb=1 / open_gop=0 / weightp=2 / keyint=250 / keyint_min=25 / scenecut=40 / intra_refresh=0 / rc_lookahead=60 / rc=crf / mbtree=1 / crf=20.0 / qcomp=0.60 / qpmin=0 / qpmax=69 / qpstep=4 / vbv_maxrate=17500 / vbv_bufsize=17500 / crf_max=0.0 / nal_hrd=none / filler=0 / ip_ratio=1.40 / aq=1:0.60
Language : English
Default : Yes
Forced : No

Audio
ID : 2
Format : AC-3
Format/Info : Audio Coding 3
Mode extension : CM (complete main)
Format settings, Endianness : Big
Codec ID : A_AC3
Duration : 23 min
Bit rate mode : Constant
Bit rate : 192 kb/s
Channel(s) : 2 channels
Channel positions : Front: L R
Sampling rate : 48.0 kHz
Frame rate : 31.250 FPS (1536 spf)
Compression mode : Lossy
Delay relative to video : 4 ms
Stream size : 31.6 MiB (15%)
Title : DUB DD 2ch 192kbps | ПлюсПлюс
Language : Ukrainian
Default : Yes
Forced : No

Menu
00:00:00.000 : :Розділ 01
00:00:57.000 : :Розділ 02
00:11:45.600 : :Розділ 03
Скріншоти:


Автор запису та ріпу: sergiyko



Бронзовий реліз (на рейтинг впливає 75% завантаженого)
 Трекер:    Зареєстрований   

Завантажити / скачати мультфільм українською



відео для новачків



 Зареєстрований:   2016-11-11 23:34
 Розмір:   6.09 GB 
 Оцінка мультсеріалу:   9.1/10 (Голосів: 10)
   
sergiyko.5 
VIP


З нами з: 25.02.16
Востаннє: 09.12.16
Повідомлень: 488

2016-09-28 20:39  
Додав 6-8 серії.
sergiyko.5 
VIP


З нами з: 25.02.16
Востаннє: 09.12.16
Повідомлень: 488

2016-10-10 09:23  
Додав 11-15 серії.
sergiyko.5 
VIP


З нами з: 25.02.16
Востаннє: 09.12.16
Повідомлень: 488

2016-10-20 17:06  
Додав 16-23 серії.
sergiyko.5 
VIP


З нами з: 25.02.16
Востаннє: 09.12.16
Повідомлень: 488

2016-10-21 14:15  
Додав 24 серію.
tpolit 
Частий відвідувач


З нами з: 10.01.15
Востаннє: 09.12.16
Повідомлень: 30

2016-10-22 11:24  
Закачка зупинилася на 86%, немає роздачі (
sergiyko.5 
VIP


З нами з: 25.02.16
Востаннє: 09.12.16
Повідомлень: 488

2016-10-22 13:30  
tpolit написано:
Закачка зупинилася на 86%, немає роздачі (

Слідкуйте за оновленнями торенту, у вас мабуть старий торент-файл.

Cobretti 
Новенький


З нами з: 30.03.10
Востаннє: 07.12.16
Повідомлень: 1

2016-11-01 13:02  
дуже вдячний за роздачу, син у захваті !!!
sergiyko.5 
VIP


З нами з: 25.02.16
Востаннє: 09.12.16
Повідомлень: 488

2016-11-01 18:53  
Додав 25-30 серії.
sergiyko.5 
VIP


З нами з: 25.02.16
Востаннє: 09.12.16
Повідомлень: 488

2016-11-03 12:29  
Matvealeksandr 
Новенький


З нами з: 08.12.15
Востаннє: 25.11.16
Повідомлень: 1

2016-11-04 08:54  
А 9-10 серії?
sergiyko.5 
VIP


З нами з: 25.02.16
Востаннє: 09.12.16
Повідомлень: 488

2016-11-19 14:36  
Сезон повний. Приємного перегляду.
Ваш часовий пояс: GMT + 2 Години

Нова тема   Відповісти