Завантажити та скачати торренти українською


Європа / Europa Report (2013) 720p Ukr/Eng | Sub Eng

Нові коментарі

Нова тема   Відповісти
Автор Повідомлення
Anonymous 







2016-09-26 21:50  
Європа / Europa Report (2013) 720p Ukr/Eng | Sub Eng

Європа / Europa Report (2013) 720p Ukr/Eng | Sub Eng

Оригінальна обкладинка


повнорозмірне зображення відкриється по кліку (з натиснутим CTRL чи кліком середньою кнопкою мишки - у новій вкладці)


Жанр: фантастика, трилер
Країна: США



Кінокомпанія: Wayfare Entertainment, Misher Films, Start Motion Pictures
Режисер: Себастьян Кордеро / Sebastián Cordero
Актори: Крістіан Камарґо / Christian Camargo, Шарлто Коплі / Sharlto Copley, Анамарія Марінка / Anamaria Marinca, Мікаел Нюквіст / Michael Nyqvist, Деніел Ву / Daniel Wu, Кароліна Видра / Karolina Wydra, Ембет Девідц / Embeth Davidtz, Ісайя Вітлок мол. / Isiah Whitlock Jr., Ден Фоґлер / Dan Fogler та інші

Сюжет:
У фільмі розповідається про міжнародну космічну експедицію до шостого супутника Юпітера, яку споряджає приватна корпорація. Мета польоту - висадитися на поверхні Європи, у підлідному океані якої вчені теоретично припускають наявність життя.


Рейтинг MPAA: PG-13 - дітям до 13 років перегляд не бажаний
Вікова категорія: 12+

Тривалість: 01:30:25
Якість: 720p [NTb]
Відео:
кодек:
розмір кадру: 1280 х 720
бітрейт: 6757 Кбіт/с [crf=17.8]

Аудіо # 1:
мова: українська
переклад: багатоголосий закадровий
кодек: 2.0
бітрейт: 192 Кбіт/с

Аудіо # 2:
мова: англійська
переклад: оригінал
кодек: 5.1
бітрейт: 640 Кбіт/с

Субтитри #1:
мова: українська (форсовані, на два написи)
тип: програмні (м'які)
формат: *.srt

Субтитри #2-3:
мова: англійська (форсовані, повні)
тип: програмні (м'які)
формат: *.srt

Збережено оригінальні розділи, як на Blu-ray.
MediaInfo
Код:
Complete name               : Europa Report (2013) [Ukr,Eng sub.Eng] 720p [Hurtom].mkv
Format                      : Matroska
Format version              : Version 4 / Version 2
File size                   : 4.79 GiB
Duration                    : 1 h 30 min
Overall bit rate            : 7 592 kb/s
Movie name                  : Європа / Europa Report (2013) [Ukr,Eng sub.Eng] 720p [Hurtom] by igor911
Released date               : 2013
Cover                       : Yes
Comment                     : http://www.imdb.com/title/tt2051879/
Attachments                 : cover.jpg
ARTIST                      : Крістіан Камарґо / Christian Camargo, Шарлто Коплі / Sharlto Copley, Анамарія Марінка / Anamaria Marinca, Мікаел Нюквіст / Michael Nyqvist, Деніел Ву / Daniel Wu, Кароліна Видра / Karolina Wydra, Ембет Девідц / Embeth Davidtz, Ісайя Вітлок мол. / Isiah Whitlock Jr., Ден Фоґлер / Dan Fogler та інші
DIRECTOR                    : Себастьян Кордеро / Sebastián Cordero
GENRE                       : фантастика, трилер
SYNOPSIS                    : У фільмі розповідається про міжнародну космічну експедицію до шостого супутника Юпітера, яку споряджає приватна корпорація. Мета польоту - висадитися на поверхні Європи, у підлідному океані якої вчені теоретично припускають наявність життя.
Url                         : https://toloka.to/t76323

Video
ID                          : 1
Format                      : AVC
Format/Info                 : Advanced Video Codec
Format profile              : [email protected]
Format settings, CABAC      : Yes
Format settings, ReFrames   : 9 frames
Codec ID                    : V_MPEG4/ISO/AVC
Duration                    : 1 h 30 min
Bit rate                    : 6 757 kb/s
Width                       : 1 280 pixels
Height                      : 720 pixels
Display aspect ratio        : 16:9
Frame rate mode             : Constant
Frame rate                  : 23.976 (24000/1001) FPS
Color space                 : YUV
Chroma subsampling          : 4:2:0
Bit depth                   : 8 bits
Scan type                   : Progressive
Bits/(Pixel*Frame)          : 0.306
Stream size                 : 4.27 GiB (89%)
Title                       : Європа / Europa Report (2013) 720p [NTb]
Writing library             : core 138 r2358 9e941d1
Encoding settings           : cabac=1 / ref=9 / deblock=1:-3:-3 / analyse=0x3:0x133 / me=umh / subme=10 / psy=1 / psy_rd=1.05:0.00 / mixed_ref=1 / me_range=48 / chroma_me=1 / trellis=2 / 8x8dct=1 / cqm=0 / deadzone=21,11 / fast_pskip=0 / chroma_qp_offset=-2 / threads=6 / lookahead_threads=1 / sliced_threads=0 / nr=0 / decimate=1 / interlaced=0 / bluray_compat=0 / constrained_intra=0 / bframes=9 / b_pyramid=2 / b_adapt=2 / b_bias=0 / direct=3 / weightb=1 / open_gop=0 / weightp=2 / keyint=250 / keyint_min=23 / scenecut=40 / intra_refresh=0 / rc_lookahead=60 / rc=crf / mbtree=0 / crf=17.8 / qcomp=0.75 / qpmin=0 / qpmax=69 / qpstep=4 / vbv_maxrate=50000 / vbv_bufsize=62500 / crf_max=0.0 / nal_hrd=none / ip_ratio=1.30 / pb_ratio=1.20 / aq=1:0.75
Language                    : English
Default                     : Yes
Forced                      : No

Audio #1
ID                          : 2
Format                      : AC-3
Format/Info                 : Audio Coding 3
Mode extension              : CM (complete main)
Format settings, Endianness : Big
Codec ID                    : A_AC3
Duration                    : 1 h 30 min
Bit rate mode               : Constant
Bit rate                    : 192 kb/s
Channel(s)                  : 2 channels
Channel positions           : Front: L R
Sampling rate               : 48.0 kHz
Frame rate                  : 31.250 FPS (1536 spf)
Compression mode            : Lossy
Stream size                 : 124 MiB (3%)
Title                       : MVO [K1] 2.0 192 Kbps [Hurtom-ninenine]
Language                    : Ukrainian
Default                     : Yes
Forced                      : No

Audio #2
ID                          : 3
Format                      : AC-3
Format/Info                 : Audio Coding 3
Mode extension              : CM (complete main)
Format settings, Endianness : Big
Codec ID                    : A_AC3
Duration                    : 1 h 30 min
Bit rate mode               : Constant
Bit rate                    : 640 kb/s
Channel(s)                  : 6 channels
Channel positions           : Front: L C R, Side: L R, LFE
Sampling rate               : 48.0 kHz
Frame rate                  : 31.250 FPS (1536 spf)
Compression mode            : Lossy
Stream size                 : 414 MiB (8%)
Title                       : Original, 5.1 640 Kbps
Language                    : English
Default                     : No
Forced                      : No

Text #1
ID                          : 4
Format                      : UTF-8
Codec ID                    : S_TEXT/UTF8
Codec ID/Info               : UTF-8 Plain Text
Duration                    : 22 min
Bit rate                    : 0 b/s
Count of elements           : 2
Stream size                 : 42.0 Bytes (0%)
Title                       : Ukr Forced
Language                    : Ukrainian
Default                     : Yes
Forced                      : Yes

Text #2
ID                          : 5
Format                      : UTF-8
Codec ID                    : S_TEXT/UTF8
Codec ID/Info               : UTF-8 Plain Text
Duration                    : 3 s 461 ms
Bit rate                    : 136 b/s
Count of elements           : 2
Stream size                 : 59.0 Bytes (0%)
Title                       : Eng Forced
Language                    : English
Default                     : No
Forced                      : No

Text #3
ID                          : 6
Format                      : UTF-8
Codec ID                    : S_TEXT/UTF8
Codec ID/Info               : UTF-8 Plain Text
Duration                    : 1 h 23 min
Bit rate                    : 62 b/s
Count of elements           : 1015
Stream size                 : 38.4 KiB (0%)
Title                       : Eng full
Language                    : English
Default                     : No
Forced                      : No

Menu
00:00:00.000                : :00:00:00.000
00:07:24.944                : :00:07:24.944
00:15:46.988                : :00:15:46.988
00:22:05.491                : :00:22:05.491
00:28:40.218                : :00:28:40.218
00:34:55.719                : :00:34:55.719
00:40:22.253                : :00:40:22.253
00:51:24.081                : :00:51:24.081
00:59:42.996                : :00:59:42.996
01:09:13.649                : :01:09:13.649
01:18:32.333                : :01:18:32.333
01:24:27.145                : :01:24:27.145
Оригінал <----------> Ріп






Джерело: &
Подяка POMEO, krigg070 за запис з ТБ та ninenine за зведення української доріжки, DanyZemlyanoy за українізований постер.


 Трекер:    Зареєстрований   

Завантажити / скачати фільм українською



відео для новачків



 Зареєстрований:   2016-09-26 22:59
 Розмір:   4.79 GB 
 Оцінка фільму:   5.8/10 (Голосів: 24)
   
Інші релізи
   Європа / Europa Report (2013) Ukr/Eng ninenine  19 / 0   1.57 GB   2016-09-26 11:46 
bot 
робот


З нами з: 30.09.07
Востаннє: 26.05.05
Повідомлень: 16050

2016-09-26 22:58  
Тему перенесено з Анонси релізів до форуму Фільми в HD


igor911

aVa_W 
Новенький


З нами з: 21.04.16
Востаннє: 06.12.16
Повідомлень: 7

2016-09-27 00:01  
Хто вже дивився? Цікавий фільм?
poolvetrum 
Поважний учасник


З нами з: 01.06.14
Востаннє: 10.12.16
Повідомлень: 207

2016-09-27 00:13  
aVa_W написано:
Хто вже дивився? Цікавий фільм?

Хороша наукова-фантастика. Трішки напружує "закос" під документальність з коментаторськими вставками. Якщо любите жанр, то не проходьте повз.

dima-f1 
Новенький


З нами з: 09.12.14
Востаннє: 09.12.16
Повідомлень: 3

2016-09-29 18:45  
Я смотрел, очень понравился
waloha 
VIP


З нами з: 29.12.09
Востаннє: 09.12.16
Повідомлень: 323

2016-09-29 19:39  
Слабонький фильм, на один раз, так перед сном можна подивитися, наукова фантастика без екшенів закрученого сценарію, є сильніші фільми на дану тематику.
Anonymous 







2016-09-29 21:30  
dima-f1, хіба важко писати українською?
Правила написано:
2. Правила та обмеження форуму
Всім без винятку заборонено:
2.1 Спілкуватися іншою мовою, аніж літературною українською

Nobil 
Новенький


З нами з: 12.04.14
Востаннє: 09.12.16
Повідомлень: 14

2016-10-01 15:44  
Повне лайно!
Ваш часовий пояс: GMT + 2 Години

Нова тема   Відповісти