Завантажити та скачати торренти українською


Софія Прекрасна / Sofia the First (Сезон 1,2,3 - 24 серії з 29) (2013)

Нові коментарі

Нова тема   Відповісти
Автор Повідомлення
sergiyko.5 
Попереджень: 1
Попереджень: 1 


З нами з: 25.02.16
Востаннє: 03.12.16
Повідомлень: 482

2016-09-26 11:09  
Софія Прекрасна / Sofia the First (Сезон 1-3) (2013)


Софія Прекрасна / Sofia the First (Сезон 1,2,3 - 24 серії з 29) (2013)

Жанр: мюзикл, фентезі, сімейний
Країна: США
Кінокомпанія: Disney Television Animation, Walt Disney Productions
Режисер: Джемі Мітчелл, Сем Рігел, Ларрі Лейчлітер

Мультфільм дубльовано студією «LeDoyen» на замовлення «Disney Character Voices International» у 2015 році.

Перекладач: Надія Бойван
Режисер дубляжу: Людмила Ардельян
Текст пісен: Роман Кисельов, Ілля Чернілевський
Музичний керівник: Тетяна Піроженко

Ролі озвучували: Галина Дубок — Софія Прекрасна, Олег Александров — принц Джеймс, Єлизавета Зіновенко — принцеса Ембер, Катерина Качан — королева Міранда, Андрій Мостренко — король Роланд, Михайло Войчук — Бейлівік, Олег Лепенець — Клевер, Дмитро Завадський — Седрик, Володимир Кокотунов — Вормвуд, Колодязь, Олена Узлюк — Марла, Марія Нікітенко — Люсінда, Катерина Сергєєва — Міс Нетл, Саша, Максим Кондратюк — Гіліам, Мінімус, Андрій Бойко — Калід, Андрій Терещук — Дезмонд, Софія Лозіна — Вівіан, Максим Чумак — Х'юго, Людмила Ардельян — Тіллі, Електра, Андрій Соболєв — Бартлбі, Сергій Юрченко — Максвел, Сергій Солопай — Фінєган, Володимир Канівець — Рекс

Сюжет:
В одному з далеких, найкрасивіших та неймовірно чарівних королівств, де дива трапляються на кожному кроці, гармонійно поєднуючись із веселощами, живе юна принцеса Софія. Нещодавно її мама вийшла заміж за короля, і так Софія стала принцесою. А щоб достойно носити корону, їй треба багато чому ще навчитися. До того ж у навчання входять не тільки правила королівського етикету, а й володіння магією. Допомагатимуть принцесі її давні, вірні друзі – говіркі звірятка. А істинно королівський шарм полонить серця нових друзів і родичів.




Тривалість: 1 серія: 23:25 (22 серія 1 сезону - 48:33, 18 серія 2 сезону - 46:47) (цілком серій: 24+28+24)

Якість:
Відео: кодек: розмір кадру: 720 x 400 бітрейт: 1500 кб/с
Аудіо: мова: українська переклад: професійний дубльований кодек: 2.0 бітрейт: 192 кб/с
Джерело озвучення:
Перелік серій

Сезон 1
01 Жила собі принцеса
02 Ніч у палаці
03 Дивні добрі тролі
04 Учениця Седріка
05 Нашкодили по королівськи
06 Сором'язлива принцеса
07 Кролик переможець
08 Іспит для принцес
09 Вихідний Белівіка
10 Пікнік трьох королівств
11 Маленька відьма
12 Вдвох у Тангу
13 У пошуках Кловера
14 Амулет Авалора
15 Дзвіночки
16 Дорогу міс Нетл
17 Амулет та гімн
18 Грандіозне чаювання
19 Принцеса-метелик
20 Велика пригода з тіткою
21 Король-пекар
22 Плаваючий палац
23 Свято в Казковії
24 Четверта зайва

Сезон 2
01 Дві принцеси і малюк
02 Чарівний бенкет
03 Крилата корона
04 Слово "мама"
05 Мовчазний лицар
06 Ярмарок чудес
07 Король на день
08 Коли бажання загадаєш
09 Винахідниця Гвен
10 Софія Друга
11 Долина чарів
12 Принцеси спішать на допомогу
13 Вечірка з привидами
14 Смарагдовий ключ
15 Переплутані улюбленці
16 Принцеса залишається в картині
17 Бейліой
18 Прокляття принцеси Айві
19 Подарунок зими
20 Фестиваль пісень листя
21 Седрік на заміні
22 Час Кловера
23 Хрещена Тізі
24 Казка про дві команди
25 Крихітна принцеса
26 Дзвіночок Ембер
27 Керол-стріла
28 Помічниця Кліо

Сезон 3
01 Спритний Флук
02 Мінімус зникає
03 Седрік добрий
04 Пригодницький клуб для принцес
05 Коли ти за старшу
06 Таємна бібліотека
07 Новий джин у королівстві
08 Фея прилетіла
09 Принцеси балерини
10 Ельфи і переїзд
11 Софія в Ельфенморі
12 Буремна Лані
13 Володар льодової арени
14 Таємна бібліотека: Олаф та казка про міс Нетл
15 Віднесення паличкою
16 Поганий маленький дракон
17 Не той кролик
18 Її королівське шпигунство
19 Найкращій повітряний трюк
20 День татусів і доньок
21 Казка про шляхетного лицаря
22 Бамбуковий змій
23 Красуня-чудовисько
24 День казана
MediaInfo
General
Complete name : E:\Torrents\Sofia the First S01 \S01E01.Just.One.of.the.Princes.avi
Format : AVI
Format/Info : Audio Video Interleave
File size : 352 MiB
Duration : 23 min
Overall bit rate : 2 102 kb/s
Writing application : VirtualDubMod 1.5.10.3 (build 2550/release)
Writing library : VirtualDubMod build 2550/release

Video
ID : 0
Format : MPEG-4 Visual
Format profile : Advanced [email protected]
Format settings, BVOP : 2
Format settings, QPel : No
Format settings, GMC : No warppoints
Format settings, Matrix : Default (MPEG)
Codec ID :
Codec ID/Hint :
Duration : 23 min
Bit rate : 1 901 kb/s
Width : 720 pixels
Height : 400 pixels
Display aspect ratio : 16:9
Frame rate : 23.976 (23976/1000) FPS
Color space : YUV
Chroma subsampling : 4:2:0
Bit depth : 8 bits
Scan type : Progressive
Compression mode : Lossy
Bits/(Pixel*Frame) : 0.275
Stream size : 318 MiB (90%)
Writing library : 73

Audio
ID : 1
Format : AC-3
Format/Info : Audio Coding 3
Mode extension : CM (complete main)
Format settings, Endianness : Big
Codec ID : 2000
Duration : 23 min
Bit rate mode : Constant
Bit rate : 192 kb/s
Channel(s) : 2 channels
Channel positions : Front: L R
Sampling rate : 48.0 kHz
Frame rate : 31.250 FPS (1536 spf)
Compression mode : Lossy
Stream size : 32.2 MiB (9%)
Alignment : Split accross interleaves
Interleave, duration : 42 ms (1.00 video frame)
Interleave, preload duratio : 500 ms
Скріншоти:


Реліз: sergiyko



Бронзовий реліз (на рейтинг впливає 75% завантаженого)
 Трекер:    Зареєстрований   

Завантажити / скачати мультфільм українською



відео для новачків



 Зареєстрований:   2016-10-12 10:29
 Розмір:   22.51 GB 
 Оцінка мультсеріалу:   10/10 (Голосів: 7)
   
sergiyko.5 
Попереджень: 1
Попереджень: 1 


З нами з: 25.02.16
Востаннє: 03.12.16
Повідомлень: 482

2016-09-30 12:13  
Додав другий повний сезон.
tar1k15 
Частий відвідувач


З нами з: 10.03.12
Востаннє: 03.12.16
Повідомлень: 35

2016-09-30 14:40  
sergiyko.5
І на 3 сезон можна надіятися?

sergiyko.5 
Попереджень: 1
Попереджень: 1 


З нами з: 25.02.16
Востаннє: 03.12.16
Повідомлень: 482

2016-09-30 15:26  
tar1k15
Звичайно.

sergiyko.5 
Попереджень: 1
Попереджень: 1 


З нами з: 25.02.16
Востаннє: 03.12.16
Повідомлень: 482

2016-10-07 20:41  
Додав 23 серію 3 сезону.
sergiyko.5 
Попереджень: 1
Попереджень: 1 


З нами з: 25.02.16
Востаннє: 03.12.16
Повідомлень: 482

2016-10-12 10:35  
Додав 24 серію 3 сезону. Змінив серії 5,8,14 третього сезону на відео кращої якості.
Ваш часовий пояс: GMT + 2 Години

Нова тема   Відповісти