Завантажити та скачати торренти українською


Дивні - Дискографія (2 CD) (1999) [FLAC] | Alternative

Нові коментарі

Нова тема   Відповісти
Автор Повідомлення
gosha.samovar 
VIP


З нами з: 08.09.10
Востаннє: 06.12.16
Повідомлень: 400

2016-09-24 20:04  
Дивні - Дискографія (2 CD) (1999) [FLAC] | Alternative


Стиль: Alternative Rock
Країна, місто: Україна, Львів
Видавець: АТЯБА
Виконавці:
Віталій Бондар - гітара, вокал
Іван Добош - ударні, вокал
Василь Бурий - гітара, вокал
Олександр Гнатів - бас-гітара, вокал
Пісні:
    1999 - Глянь на мене (LC CD ATYABA 05-1999)

    01. Глянь на мене
    02. Казка
    03. Я тебе побачив
    04. Цей вечір твій
    05. Я так довго ждав
    06. Сонечко
    07. Ми ніби ми
    08. А чо мені нічо сказати ти не хоч
    09. Осінній день
    10. Чорний терен
    11. Хтось
    12. Про мишку
    13. Пройдись
    14. Зернятко
    15. Чорні хлопці
    16. Новорічна
    17. Реприза
    EAC log
    Exact Audio Copy V1.0 beta 3 from 29. August 2011

    Отчёт EAC об извлечении, выполненном 9. октября 2013, 15:55

    Дивні / Глянь на мене

    Дисковод: PHILIPS SPD2519T Adapter: 2 ID: 0

    Режим чтения : Достоверность
    Использование точного потока : Да
    Отключение кэша аудио : Да
    Использование указателей C2 : Нет

    Коррекция смещения при чтении : 6
    Способность читать области Lead-in и Lead-out : Нет
    Заполнение пропущенных сэмплов тишиной : Да
    Удаление блоков с тишиной в начале и конце : Нет
    При вычислениях CRC использовались нулевые сэмплы : Да
    Интерфейс : Встроенный Win32-интерфейс для Win NT/2000

    Выходной формат : Пользовательский кодировщик
    Выбранный битрейт : 1024 kBit/s
    Качество : Высокий
    Добавление ID3-тега : Нет
    Утилита сжатия : D:\soft_2\EAC\Exact Audio Copy\Flac\flac.exe
    Дополнительные параметры : -V -8 -T "Date=%year%" -T "Genre=%genre%" %source%

    TOC извлечённого CD

    Трек | Старт | Длительность | Начальный сектор | Конечный сектор
    ---------------------------------------------------------------------
    1 | 0:00.00 | 2:43.02 | 0 | 12226
    2 | 2:43.02 | 2:53.20 | 12227 | 25221
    3 | 5:36.22 | 2:25.04 | 25222 | 36100
    4 | 8:01.26 | 2:00.74 | 36101 | 45174
    5 | 10:02.25 | 2:06.09 | 45175 | 54633
    6 | 12:08.34 | 2:35.66 | 54634 | 66324
    7 | 14:44.25 | 2:53.35 | 66325 | 79334
    8 | 17:37.60 | 3:38.07 | 79335 | 95691
    9 | 21:15.67 | 2:48.49 | 95692 | 108340
    10 | 24:04.41 | 2:30.65 | 108341 | 119655
    11 | 26:35.31 | 2:40.61 | 119656 | 131716
    12 | 29:16.17 | 3:05.42 | 131717 | 145633
    13 | 32:21.59 | 2:41.50 | 145634 | 157758
    14 | 35:03.34 | 2:00.15 | 157759 | 166773
    15 | 37:03.49 | 2:14.01 | 166774 | 176824
    16 | 39:17.50 | 1:44.08 | 176825 | 184632
    17 | 41:01.58 | 1:19.33 | 184633 | 190590

    Характеристики диапазона извлечения и сообщения об ошибках

    Выбранный диапазон

    Имя файла N:\Роздачі\Дивні\1999 - Глянь на мене\Дивні - Глянь на мене.wav

    Пиковый уровень 100.0 %
    Скорость извлечения 6.7 X
    Качество диапазона 100.0 %
    CRC теста ED002E40
    CRC копии ED002E40
    Копирование... OK

    Ошибок не произошло

    AccurateRip: сводка

    Трек 1 отсутствует в базе данных
    Трек 2 отсутствует в базе данных
    Трек 3 отсутствует в базе данных
    Трек 4 отсутствует в базе данных
    Трек 5 отсутствует в базе данных
    Трек 6 отсутствует в базе данных
    Трек 7 отсутствует в базе данных
    Трек 8 отсутствует в базе данных
    Трек 9 отсутствует в базе данных
    Трек 10 отсутствует в базе данных
    Трек 11 отсутствует в базе данных
    Трек 12 отсутствует в базе данных
    Трек 13 отсутствует в базе данных
    Трек 14 отсутствует в базе данных
    Трек 15 отсутствует в базе данных
    Трек 16 отсутствует в базе данных
    Трек 17 отсутствует в базе данных

    Ни одного трека нет в базе AccurateRip

    Конец отчёта

    ==== Контрольная сумма отчёта CB0C75858FD14A8D03318DBBCF62DF39A005074715E8C577A61DE43A432069A3 ====
    Спектри


    1999 - А вже Різдво (LC CD ATYABA 06-1999)

    01. Добрий вечір
    02. Якщо хтось з вас забув
    03. Знаєте, знаю
    04. Зранку стукає в віконце
    05. В цей Великдень
    06. Я полетів
    07. Ой, дай, боже
    08. А вже Різдво
    09. Десь давно
    10. Вечір землю обняв
    11. Скрізь лпатий сніг падає
    12. Ой, понад горами
    13. Сьогодні свято на землі
    14. Падав білий сніг
    15. Щедрівка
    16. Новорічна
    17. Сипле снігом
    18. Реприза
    EAC log
    Exact Audio Copy V1.0 beta 3 from 29. August 2011

    Отчёт EAC об извлечении, выполненном 9. октября 2013, 17:11

    Дивні / А вже Різдво

    Дисковод: PHILIPS SPD2519T Adapter: 2 ID: 0

    Режим чтения : Достоверность
    Использование точного потока : Да
    Отключение кэша аудио : Да
    Использование указателей C2 : Нет

    Коррекция смещения при чтении : 6
    Способность читать области Lead-in и Lead-out : Нет
    Заполнение пропущенных сэмплов тишиной : Да
    Удаление блоков с тишиной в начале и конце : Нет
    При вычислениях CRC использовались нулевые сэмплы : Да
    Интерфейс : Встроенный Win32-интерфейс для Win NT/2000

    Выходной формат : Пользовательский кодировщик
    Выбранный битрейт : 1024 kBit/s
    Качество : Высокий
    Добавление ID3-тега : Нет
    Утилита сжатия : D:\soft_2\EAC\Exact Audio Copy\Flac\flac.exe
    Дополнительные параметры : -V -8 -T "Date=%year%" -T "Genre=%genre%" %source%

    TOC извлечённого CD

    Трек | Старт | Длительность | Начальный сектор | Конечный сектор
    ---------------------------------------------------------------------
    1 | 0:00.00 | 1:38.40 | 0 | 7389
    2 | 1:38.40 | 2:21.33 | 7390 | 17997
    3 | 3:59.73 | 1:35.44 | 17998 | 25166
    4 | 5:35.42 | 1:24.13 | 25167 | 31479
    5 | 6:59.55 | 2:16.02 | 31480 | 41681
    6 | 9:15.57 | 1:12.60 | 41682 | 47141
    7 | 10:28.42 | 3:08.03 | 47142 | 61244
    8 | 13:36.45 | 2:22.07 | 61245 | 71901
    9 | 15:58.52 | 1:42.00 | 71902 | 79551
    10 | 17:40.52 | 2:43.70 | 79552 | 91846
    11 | 20:24.47 | 3:03.19 | 91847 | 105590
    12 | 23:27.66 | 1:43.65 | 105591 | 113380
    13 | 25:11.56 | 1:40.71 | 113381 | 120951
    14 | 26:52.52 | 2:34.30 | 120952 | 132531
    15 | 29:27.07 | 4:11.01 | 132532 | 151357
    16 | 33:38.08 | 1:31.68 | 151358 | 158250
    17 | 35:10.01 | 2:49.52 | 158251 | 170977
    18 | 37:59.53 | 1:55.31 | 170978 | 179633

    Характеристики диапазона извлечения и сообщения об ошибках

    Выбранный диапазон

    Имя файла N:\Роздачі\Дивні\1999 - А вже Різдво\Дивні - А вже Різдво.wav

    Пиковый уровень 100.0 %
    Скорость извлечения 2.2 X
    Качество диапазона 100.0 %
    CRC теста 3FE8D815
    CRC копии 3FE8D815
    Копирование... OK

    Ошибок не произошло

    AccurateRip: сводка

    Трек 1 отсутствует в базе данных
    Трек 2 отсутствует в базе данных
    Трек 3 отсутствует в базе данных
    Трек 4 отсутствует в базе данных
    Трек 5 отсутствует в базе данных
    Трек 6 отсутствует в базе данных
    Трек 7 отсутствует в базе данных
    Трек 8 отсутствует в базе данных
    Трек 9 отсутствует в базе данных
    Трек 10 отсутствует в базе данных
    Трек 11 отсутствует в базе данных
    Трек 12 отсутствует в базе данных
    Трек 13 отсутствует в базе данных
    Трек 14 отсутствует в базе данных
    Трек 15 отсутствует в базе данных
    Трек 16 отсутствует в базе данных
    Трек 17 отсутствует в базе данных
    Трек 18 отсутствует в базе данных

    Ни одного трека нет в базе AccurateRip

    Конец отчёта

    ==== Контрольная сумма отчёта C8AD9DD0D42BFAFBE7095BAFC0361C90146C60F3DE42D818CD9ED72F71334CB1 ====
    Спектри




Тривалість: 01:22:16
Мова: українська
Аудіо-кодек: FLAC
Бітрейт: 742-877 кб/с
Джерело: Власні CD


Золотий реліз (завантажене не впливає на рейтинг)
 Трекер:    Зареєстрований   

Завантажити / скачати українську музику



відео для новачків



 Зареєстрований:   2016-09-24 20:08
 Розмір:   619 MB 
 Оцінка музики:   10/10 (Голосів: 3)
   
Форкуш 
VIP


З нами з: 03.02.10
Востаннє: 09.12.16
Повідомлень: 1545

2016-09-24 22:50  
Круто. МП3 пліз)
ssTAss 
Модератор музики


З нами з: 05.07.08
Востаннє: 08.12.16
Повідомлень: 10948

2016-09-24 22:58  
Форкуш написано:
МП3 пліз)

??
http://toloka.to/t3031
http://toloka.to/t3030

Додано через 1 хвилину:

і, повторю ще раз - приберіть матюччя з підпису

Pinguin 
Поважний учасник


З нами з: 08.04.12
Востаннє: 08.12.16
Повідомлень: 190

2016-09-25 08:04  
gosha.samovar написано:
Країна, місто: Україна, Київ

може Львів

Форкуш 
VIP


З нами з: 03.02.10
Востаннє: 09.12.16
Повідомлень: 1545

2016-09-25 08:24  
ssTAss написано:

??
http://toloka.to/t3031
http://toloka.to/t3030


В тих релізах не прописані теги і підозрюю, низька якість конверту. 92 мб/18 пісень - дивнувато...

gosha.samovar 
VIP


З нами з: 08.09.10
Востаннє: 06.12.16
Повідомлень: 400

2016-09-25 12:13  
Pinguin написано:
може Львів

Дякую, виправив.
Форкуш написано:
В тих релізах не прописані теги і підозрюю, низька якість конверту. 92 мб/18 пісень - дивнувато...

Якщо адміни вважають, що потрібно, я зроблю і мр3.

Форкуш 
VIP


З нами з: 03.02.10
Востаннє: 09.12.16
Повідомлень: 1545

2016-09-25 12:26  
gosha.samovar
Робіть. Або я можу зробити дискографію, якшо гарно пограбаєте))

ssTAss 
Модератор музики


З нами з: 05.07.08
Востаннє: 08.12.16
Повідомлень: 10948

2016-09-25 21:36  
Форкуш написано:
В тих релізах не прописані теги і підозрюю, низька якість конверту. 92 мб/18 пісень - дивнувато...

за теги і назви треків погоджуюсь, а за "низьку якість конвертації" дякую, посміявся
не кількість пісень важлива, а тривалість
там
Цитата:
Тривалість: 00:39:48

отже, 39хв і 48 с, разом це буде 2388 секунди
перемножуємо на 320 (бітрейт) і ділимо на 8 (біт/байт)
вийде 95520 кб або 95 Мб
конвертуйте і самі побачите
а щодо дискографії в мр3, то робіть, хто ж Вам заважає

Ваш часовий пояс: GMT + 2 Години

Нова тема   Відповісти