Завантажити та скачати торренти українською


Каю / Caillou (Сезон 1) (1997) AVC

Нові коментарі

Нова тема   Відповісти
Автор Повідомлення
sergiyko.5 
VIP


З нами з: 25.02.16
Востаннє: 09.12.16
Повідомлень: 488

2016-09-24 18:14  
Каю / Caillou (Сезон 1) (1997) AVC


Каю / Caillou (Сезон 1) (1997) AVC

Жанр: Дитячий мультсеріал
Країна: Канада
Кіностудія / кінокомпанія: CINAR, Cookie Jar Entertainment
Режисер: Нік Ріджгерсберг, Жан Пілотте

Сюжет:
Каю́ - франко-канадський мультиплікаційний серіал для дітей, знятий за книжками Кристини Льорьо, ілюстрованими Елен Депюто.

Пригоди чотирирічного хлопчика на ім'я Каю, який кожен день виявляє щось цікаве з його мамою, татом і молодшою сестрою Роузі.




Тривалість: 1 серія: 04:23 (цілком серій: 65)
Якість:

Відео: кодек: розмір кадру: 704 х 520 бітрейт: 900 кб/с
Аудіо: мова: українська переклад: професійний дубльований кодек: 2.0 бітрейт: 192 кб/с
Джерело озвучення:


Перелік серій

01 Caillou Makes Cookies
02 Caillou's Not Afraid Anymore
03 Caillou Hates Vegetables
05 Caillou Tidies His Toys
06 Caillou Learns to Drive
07 Caillou at Daycare
08 Caillou Joins the Circus
09 Caillou is Afraid in the Dark
10 Caillou's Friends
11 Caillou Visits the Doctor
12 Big Brother Caillou
13 Caillou Goes Shopping
14 Caillou in the Bathtub
15 Caillou Gets Dressed
16 Caillou's Teddy Shirt
17 Caillou Goes Round the Block
18 Caillou's Hiding Place
19 Caillou's Birthday Present
20 Caillou and Gilbert
21 Caillou's Summer Goodnight
22 Caillou is Scared of Dogs
23 Caillou Goes to the Zoo
24 Caillou's Rainy Day
25 Caillou at the Beach
26 Caillou's New Shoes
27 Caillou's Snowman
28 Caillou is a Clown
29 Caillou's Special Friend
30 Caillou Rakes the Leaves
31 Caillou's Big Friend
32 Caillou's Colours
33 Caillou Mails a Letter
34 Caillou Goes Camping
35 Caillou Learns to Swim
36 Caillou's New Babysitter
37 Caillou Learns to Skate
38 Caillou Makes a New Friend
39 Caillou and Daddy
40 Caillou Grows Carrots
41 Caillou Goes to a Theme Park
42 Caillou's School Bus
43 Caillou Looks for Gilbert
44 Caillou's Surprise Breakfast
45 Caillou's Missing Sock
46 Caillou Goes to Work
47 Caillou's Quarrel
48 Caillou's Getting Older
49 Caillou's Big Slide
50 Caillou Walks a Dog
51 Caillou Watches Rosie
52 Caillou Is Sick
53 Caillou's Phone Call
54 Caillou Sleeps Over
55 Caillou Plays a Baby
56 Caillou Flies a Plane
57 Rosie Bothers Caillou
58 Caillou Goes Birdwatching
59 Caillou and the Doll
60 Caillou Hurts Himself
61 Caillou's Big Kick
62 Caillou the Jungle Explorer
63 The Caillou Show
64 Caillou Loves Halloween
65 Caillou's Picnic
MediaInfo
General
Unique ID : 224133940555684185164441485564371268689 (0xA89EA073CCD6BC82A25EB9275F7FF451)
Complete name : E:\Torrents\Mult\Caillou \Caillou S01\S01E01.Caillou Makes Cookies.mkv
Format : Matroska
Format version : Version 4 / Version 2
File size : 36.6 MiB
Duration : 4 min
Overall bit rate : 1 167 kb/s
Movie name : rip by sergiyko
Encoded date : UTC 2016-09-24 14:06:10
Writing application : mkvmerge v9.4.0 ('Knurl') 64bit
Writing library : libebml v1.3.4 + libmatroska v1.4.5

Video
ID : 1
Format : AVC
Format/Info : Advanced Video Codec
Format profile : [email protected]
Format settings, CABAC : Yes
Format settings, ReFrames : 12 frames
Codec ID : V_MPEG4/ISO/AVC
Duration : 4 min
Bit rate : 974 kb/s
Width : 704 pixels
Height : 520 pixels
Display aspect ratio : 4:3
Frame rate mode : Constant
Frame rate : 23.976 (24000/1001) FPS
Color space : YUV
Chroma subsampling : 4:2:0
Bit depth : 8 bits
Scan type : Progressive
Bits/(Pixel*Frame) : 0.111
Stream size : 30.5 MiB (83%)
Title : S01E01 Caillou Makes Cookies
Writing library : core 148 r2705 3f5ed56
Encoding settings : cabac=1 / ref=12 / deblock=1:1:1 / analyse=0x3:0x133 / me=umh / subme=9 / psy=1 / psy_rd=0.40:0.00 / mixed_ref=1 / me_range=16 / chroma_me=1 / trellis=2 / 8x8dct=1 / cqm=0 / deadzone=21,11 / fast_pskip=1 / chroma_qp_offset=-2 / threads=6 / lookahead_threads=1 / sliced_threads=0 / nr=0 / decimate=1 / interlaced=0 / bluray_compat=0 / constrained_intra=0 / bframes=5 / b_pyramid=2 / b_adapt=2 / b_bias=0 / direct=3 / weightb=1 / open_gop=0 / weightp=2 / keyint=240 / keyint_min=23 / scenecut=40 / intra_refresh=0 / rc_lookahead=60 / rc=crf / mbtree=1 / crf=20.0 / qcomp=0.60 / qpmin=0 / qpmax=69 / qpstep=4 / vbv_maxrate=17500 / vbv_bufsize=17500 / crf_max=0.0 / nal_hrd=none / filler=0 / ip_ratio=1.40 / aq=1:0.60
Language : English
Default : Yes
Forced : No

Audio
ID : 2
Format : AC-3
Format/Info : Audio Coding 3
Mode extension : CM (complete main)
Format settings, Endianness : Big
Codec ID : A_AC3
Duration : 4 min
Bit rate mode : Constant
Bit rate : 192 kb/s
Channel(s) : 2 channels
Channel positions : Front: L R
Sampling rate : 48.0 kHz
Frame rate : 31.250 FPS (1536 spf)
Compression mode : Lossy
Delay relative to video : 39 ms
Stream size : 5.99 MiB (16%)
Title : DUB DD 2ch 192kbps | Піксель
Language : Ukrainian
Default : Yes
Forced : No
Скріншоти:


Реліз: sergiyko



Срібний реліз (на рейтинг впливає 50% завантаженого)
 Трекер:    Зареєстрований   

Завантажити / скачати мультфільм українською



відео для новачків



 Зареєстрований:   2016-11-03 13:31
 Розмір:   2.17 GB 
 Оцінка мультсеріалу:   10/10 (Голосів: 9)
   
sergiyko.5 
VIP


З нами з: 25.02.16
Востаннє: 09.12.16
Повідомлень: 488

2016-09-24 22:52  
Додав 7,9-19 серії.
sergiyko.5 
VIP


З нами з: 25.02.16
Востаннє: 09.12.16
Повідомлень: 488

2016-09-26 21:06  
Додав майже всі серії першого сезону, записи 8,35,49 серій. Приємного перегляду.
sergiyko.5 
VIP


З нами з: 25.02.16
Востаннє: 09.12.16
Повідомлень: 488

2016-11-03 13:33  
Записав та перекодував відсутні серії 8,35,49. Сезон повний. Приємного перегляду.
Ваш часовий пояс: GMT + 2 Години

Нова тема   Відповісти