Завантажити та скачати торренти українською


Люди / Humans (1 серія) (2015) 720p

Нові коментарі

Нова тема   Відповісти
Автор Повідомлення
igor2405 
Частий відвідувач


З нами з: 23.07.12
Востаннє: 07.12.16
Повідомлень: 44

2016-09-23 22:24  
Люди / Humans (1 серія) (2015) 720p



Жанр: фантастика, драма
Країна: США, Великобританія



Виробництво: AMC, Channel 4, Kudos
Режисери: Льюїс Арнольд, Самуель Донован, Чіна Му-Ян, Данієль Неттхайм, Марк Брозел, Франческа Грегоріні, Карл Тіббеттс
Актори: Емілі Беррінгтон, Рут Бредлі, Люсі Карлесс, Джемма Чан, Пікс Девіс, Джек Дігріз, Ребекка Фронт, Том Гудман-Хілл, Джилл Халфпенні, Колін Морган, Кетрін Паркінсон, Тео Стівенсон, Денні Вебб, Вільям Херт

Сюжет:
Історія відбувається в паралельному сьогоденні, де люди у повсягденному житті мають при собі пристрій «Синтетик» — робот-андроїд, який сильно нагадує людину.

Тривалість серії: ~45 хв

Якість:
Відео:
кодек: Windows Media Video 9
розмір кадру: 1280x720
бітрейт: 6099 кб/с

Аудіо:
мова: українська
переклад: багатоголосний закадровий
кодек: WMA 2
бітрейт: 192 кб/с
MediaInfo
General
Complete name : D:\Студія UDM\Люди\Люди 1 серія.wmv
Format : Windows Media
File size : 1.17 GiB
Duration : 45mn 26s
Overall bit rate mode : Constant
Overall bit rate : 3 691 Kbps
Maximum Overall bit rate : 6 342 Kbps
Encoded date : UTC 2016-09-21 17:30:07.634
SfOriginalFPS : 299700

Video
ID : 2
Format : VC-1
Format profile : [email protected]
Codec ID : WMV3
Codec ID/Info : Windows Media Video 9
Codec ID/Hint : WMV3
Description of the codec : Windows Media Video 9 - Professional
Duration : 45mn 26s
Bit rate mode : Constant
Bit rate : 6 099 Kbps
Width : 1 280 pixels
Height : 720 pixels
Display aspect ratio : 16:9
Frame rate : 29.970 (29970/1000) fps
Bit depth : 8 bits
Compression mode : Lossy
Bits/(Pixel*Frame) : 0.221
Stream size : 1.94 GiB
Language : Ukrainian

Audio
ID : 1
Format : WMA
Format version : Version 2
Codec ID : 161
Codec ID/Info : Windows Media Audio
Description of the codec : Windows Media Audio 9.2 - 192 kbps, 48 kHz, stereo (A/V) 1-pass CBR
Duration : 45mn 26s
Bit rate mode : Constant
Bit rate : 192 Kbps
Channel(s) : 2 channels
Sampling rate : 48.0 KHz
Bit depth : 16 bits
Stream size : 62.4 MiB (5%)
Language : Ukrainian
Озвучено Студією Ukrainian Dubbing Movies (UDM)
Скріншоти

Торрент-файл з ex.ua, тому роздачі не потребує.


 Трекер:    Зареєстрований   

Завантажити / скачати серіал українською



відео для новачків



 Зареєстрований:   2016-09-23 22:24
 Розмір:   1.17 GB 
 Оцінка серіалу:   9.1/10 (Голосів: 11)
   
leicheman 
Відео Гуртом - підтримка та поширення
Відео Гуртом - підтримка та поширення


З нами з: 03.07.14
Востаннє: 07.12.16
Повідомлень: 318

2016-09-24 01:28  
Доволі не поганий рімейк шведського серіалу
rkononenko 
Відео Гуртом - субтитрування
Відео Гуртом - субтитрування


З нами з: 24.02.09
Востаннє: 07.12.16
Повідомлень: 1140

2016-09-24 04:40  
igor2405
igor2405 написано:
Торрент-файл з ex.ua, тому роздачі не потребує.

Таке на гуптом здається не дозволяється

igor2405 
Частий відвідувач


З нами з: 23.07.12
Востаннє: 07.12.16
Повідомлень: 44

2016-09-24 06:05  
rkononenko написано:
Таке на гуптом здається не дозволяється

А що робити якщо хтось хоче завантажити, а роздачі немає? Я таке на гуртомі доволі часто бачу. Буває що більше року немає роздачі

ciklida 
Новенький


З нами з: 13.01.15
Востаннє: 07.12.16
Повідомлень: 2

2016-09-24 13:51  
Всім, кому сподобалась стрічка Екс Махіна, сподобатися має і цей серіал! Взагалі, раджу глянути, він цікавий і має хорошу сюжетну лінію із швидкоплинними подіями.
GoDLiKeR20 
Новенький


З нами з: 21.06.13
Востаннє: 07.12.16
Повідомлень: 9

2016-09-24 14:34  
Хороший серіал, годний.
Жаль тільки я давно глянув 1 сезон =)

tar1k15 
Частий відвідувач


З нами з: 10.03.12
Востаннє: 06.12.16
Повідомлень: 35

2016-09-24 19:58  
leicheman написано:
Humans

Краще шведський оригінал чи американський рімейк? У рімейкові не втрачена атмосфера, шарм і гра акторів, як, наприклад, у випадку з Broen (Міст)?

Pegass 
VIP


З нами з: 17.12.09
Востаннє: 07.12.16
Повідомлень: 302

2016-09-26 02:26  
Хто може, зробіть в
Konfucius 
Управління
Управління


З нами з: 30.09.07
Востаннє: 07.12.16
Повідомлень: 4743

2016-09-30 14:13  
Допишіть режисера і добавте кнопку imdb.

Якщо маєте намір викладати й наступні серії, потрібно добавити також перелік серій.

igor2405 написано:

720р

igor2405 
Частий відвідувач


З нами з: 23.07.12
Востаннє: 07.12.16
Повідомлень: 44

2016-10-01 13:07  
Konfucius написано:
imdb

Я незнаю що це і як його робити

Konfucius 
Управління
Управління


З нами з: 30.09.07
Востаннє: 07.12.16
Повідомлень: 4743

2016-10-01 22:04  
igor2405 написано:
Я незнаю що це і як його робити

Вже додав. Можете подивитися в редагуванні, як це робиться.

До речі, посилання на соцмережі заборонені.

don pedro 
Попереджень: 1
Попереджень: 1 


З нами з: 29.06.11
Востаннє: 07.12.16
Повідомлень: 8758

2016-10-21 00:37  
Бобік здох? Стала гра?
igor2405 
Частий відвідувач


З нами з: 23.07.12
Востаннє: 07.12.16
Повідомлень: 44

2016-10-27 18:35  
don pedro написано:
Бобік здох? Стала гра?

Що за бобік?

rkononenko 
Відео Гуртом - субтитрування
Відео Гуртом - субтитрування


З нами з: 24.02.09
Востаннє: 07.12.16
Повідомлень: 1140

2016-10-29 04:55  
igor2405 написано:
Що за бобік?

Мається на увазі чи плануєтся озвучення наступних серій.

igor2405 
Частий відвідувач


З нами з: 23.07.12
Востаннє: 07.12.16
Повідомлень: 44

2016-10-29 10:18  
rkononenko
Планується

Ваш часовий пояс: GMT + 2 Години

Нова тема   Відповісти