Завантажити та скачати торренти українською


Відхідна молитва / A Prayer for the Dying (1987) 720p 2xUkr/Eng | Sub Eng

Нові коментарі

Нова тема   Відповісти
Автор Повідомлення
Anonymous 







2016-09-22 19:17  
Відхідна молитва / A Prayer for the Dying (1987) 720p 2xUkr/Eng | Sub Eng

Відхідна молитва / A Prayer for the Dying (1987) 720p 2xUkr/Eng | Sub Eng

Альтернативні постери










повнорозмірні зображення відкриються по кліку (з натиснутим CTRL чи кліком середньою кнопкою мишки - у новій вкладці)


Жанр: екшн, трилер, драма, кримінальний
Країна: Велика Британія



Кінокомпанія: The Samuel Goldwyn Company
Режисер: Майк Годжес / Mike Hodges
Актори: Міккі Рурк / Mickey Rourke, Боб Госкінс / Bob Hoskins, Алан Бейтс / Alan Bates, Семмі Девіс / Sammi Davis, Крістофер Фулфорд / Christopher Fulford, Ліам Нісон / Liam Neeson, Леонард Термо / Leonard Termo, Моріс О'Коннелл / Maurice O'Connell, Каміла Кодурі / Camille Coduri, Елісон Дуді / Alison Doody, Карл Джонсон / Karl Johnson та інші

Сюжет:
На очах ірландського терориста Мартіна замість бронетранспортера на міні підривається шкільний автобус. Приголомшений Мартін вирішує «вийти з гри» і тікати за кордон. Він ховається і від поліції і від своїх колишніх товаришів по зброї з Ірландської республіканської армії. Для того щоб отримати фальшивий закордонний паспорт, він повинен зробити ще одне, останнє вбивство за замовленням гангстера Міхана. Свідком вбивства стає католицький священик Да Коста. Замість того щоб «прибрати» свідка, Мартін йде до нього на сповідь. Тепер священик зв'язаний обітницею мовчання і не може видати його поліції. Такий стан справ не влаштовує Міхана, і він вирішує назавжди "заткнути рота" всім, хто знає про злочин ...


Рейтинг MPAA: R - особам до 17 років обов'язкова присутність батьків або дорослого опікуна
Вікова категорія: 16+

Тривалість: 01:47:57
Якість: 720p
Відео:
кодек:
розмір кадру: 1280 х 692
бітрейт: 8500 Кбіт/с

Аудіо # 1:
мова: українська
переклад: багатоголосий закадровий
кодек: 2.0
бітрейт: 192 Кбіт/с

Аудіо # 2:
мова: українська
переклад: багатоголосий закадровий
кодек: 2.0
бітрейт: 192 Кбіт/с

Аудіо # 3:
мова: англійська
переклад: оригінал
кодек: FLAC 2.0
бітрейт: 654 Кбіт/с

Субтитри:
мова: англійська
тип: програмні (м'які)
формат: *.srt

Збережено оригінальні розділи, як на Blu-ray.
MediaInfo
Код:
Complete name               : A Prayer for the Dying (1987) [2xUkr,Eng sub.Eng] 720p [Hurtom].mkv
Format                      : Matroska
Format version              : Version 4 / Version 2
File size                   : 7.19 GiB
Duration                    : 1 h 47 min
Overall bit rate mode       : Variable
Overall bit rate            : 9 536 kb/s
Movie name                  : Відхідна молитва / A Prayer for the Dying (1987) [2xUkr,Eng sub.Eng] 720p [Hurtom] by igor911
Released date               : 1987
Cover                       : Yes
Comment                     : https://toloka.to/t76231
Attachments                 : cover.jpg
ARTIST                      : Міккі Рурк / Mickey Rourke, Боб Госкінс / Bob Hoskins, Алан Бейтс / Alan Bates, Семмі Девіс / Sammi Davis, Крістофер Фулфорд / Christopher Fulford, Ліам Нісон / Liam Neeson, Леонард Термо / Leonard Termo, Моріс О'Коннелл / Maurice O'Connell, Каміла Кодурі / Camille Coduri, Елісон Дуді / Alison Doody, Карл Джонсон / Karl Johnson та інші
DIRECTOR                    : Майк Годжес / Mike Hodges
GENRE                       : екшн, трилер, драма, кримінальний
SYNOPSIS                    : На очах ірландського терориста Мартіна замість бронетранспортера на міні підривається шкільний автобус. Приголомшений Мартін вирішує «вийти з гри» і тікати за кордон. Він ховається і від поліції і від своїх колишніх товаришів по зброї з Ірландської республіканської армії. Для того щоб отримати фальшивий закордонний паспорт, він повинен зробити ще одне, останнє вбивство за замовленням гангстера Міхана. Свідком вбивства стає католицький священик Да Коста. Замість того щоб «прибрати» свідка, Мартін йде до нього на сповідь. Тепер священик зв'язаний обітницею мовчання і не може видати його поліції. Такий стан справ не влаштовує Міхана, і він вирішує назавжди "заткнути рота" всім, хто знає про злочин ...

Video
ID                          : 1
Format                      : AVC
Format/Info                 : Advanced Video Codec
Format profile              : [email protected]
Format settings, CABAC      : Yes
Format settings, ReFrames   : 9 frames
Codec ID                    : V_MPEG4/ISO/AVC
Duration                    : 1 h 47 min
Bit rate                    : 8 500 kb/s
Width                       : 1 280 pixels
Height                      : 692 pixels
Display aspect ratio        : 1.85:1
Frame rate mode             : Constant
Frame rate                  : 23.976 (24000/1001) FPS
Color space                 : YUV
Chroma subsampling          : 4:2:0
Bit depth                   : 8 bits
Scan type                   : Progressive
Bits/(Pixel*Frame)          : 0.400
Stream size                 : 6.41 GiB (89%)
Title                       : Відхідна молитва / A Prayer for the Dying (1987) 720p [HDClub-SbR]
Writing library             : core 148 r2692+54 69a6f49 t_mod_Custom [[email protected] X86_64]
Encoding settings           : cabac=1 / ref=9 / deblock=1:-3:-3 / analyse=0x3:0x133 / me=umh / subme=11 / psy=1 / fade_compensate=0.00 / psy_rd=1.10:0.05 / mixed_ref=1 / me_range=48 / chroma_me=1 / trellis=2 / 8x8dct=1 / cqm=0 / deadzone=21,11 / fast_pskip=0 / chroma_qp_offset=-3 / threads=6 / lookahead_threads=1 / sliced_threads=0 / nr=0 / decimate=1 / interlaced=0 / bluray_compat=0 / constrained_intra=0 / fgo=0 / bframes=8 / b_pyramid=2 / b_adapt=2 / b_bias=0 / direct=3 / weightb=1 / open_gop=0 / weightp=2 / keyint=250 / keyint_min=23 / scenecut=40 / intra_refresh=0 / rc=2pass / mbtree=0 / bitrate=8500 / ratetol=1.0 / qcomp=0.55 / qpmin=0:0:0 / qpmax=69:69:69 / qpstep=4 / cplxblur=20.0 / qblur=0.5 / ip_ratio=1.30 / pb_ratio=1.20 / aq=1:0.75 / aq-sensitivity=10.00 / aq-factor=1.00:1.00:1.00 / aq2=1:0.60 / aq2-sensitivity=15.00 / aq2-factor=1.00:1.00:1.00 / aq3=1:[0.50:0.50]:[0.50:0.50]:[0.50:0.50]:[0.50:0.50] / aq3-sensitivity=10.00 / aq3-factor=[1.00:1.00]:[1.00:1.00]:[1.00:1.00] / aq3-boundary=192:64:24
Language                    : English
Default                     : Yes
Forced                      : No
Color range                 : Limited
Matrix coefficients         : BT.709

Audio #1
ID                          : 2
Format                      : AC-3
Format/Info                 : Audio Coding 3
Mode extension              : CM (complete main)
Format settings, Endianness : Big
Codec ID                    : A_AC3
Duration                    : 1 h 47 min
Bit rate mode               : Constant
Bit rate                    : 192 kb/s
Channel(s)                  : 2 channels
Channel positions           : Front: L R
Sampling rate               : 48.0 kHz
Frame rate                  : 31.250 FPS (1536 spf)
Compression mode            : Lossy
Stream size                 : 148 MiB (2%)
Title                       : MVO [AMC] 2.0 192 Kbps [Hurtom-ninenine]
Language                    : Ukrainian
Default                     : Yes
Forced                      : No

Audio #2
ID                          : 3
Format                      : AC-3
Format/Info                 : Audio Coding 3
Mode extension              : CM (complete main)
Format settings, Endianness : Big
Codec ID                    : A_AC3
Duration                    : 1 h 47 min
Bit rate mode               : Constant
Bit rate                    : 192 kb/s
Channel(s)                  : 2 channels
Channel positions           : Front: L R
Sampling rate               : 48.0 kHz
Frame rate                  : 31.250 FPS (1536 spf)
Compression mode            : Lossy
Stream size                 : 148 MiB (2%)
Title                       : MVO [EnterFilm] 2.0 192 Kbps [Hurtom-ninenine]
Language                    : Ukrainian
Default                     : No
Forced                      : No

Audio #3
ID                          : 4
Format                      : FLAC
Format/Info                 : Free Lossless Audio Codec
Codec ID                    : A_FLAC
Duration                    : 1 h 47 min
Bit rate mode               : Variable
Bit rate                    : 654 kb/s
Channel(s)                  : 2 channels
Channel positions           : Front: L R
Sampling rate               : 48.0 kHz
Frame rate                  : 11.719 FPS (4096 spf)
Bit depth                   : 16 bits
Stream size                 : 505 MiB (7%)
Title                       : Original, FLAC 2.0 654 Kbps
Writing library             : libFLAC 1.2.1 (UTC 2007-09-17)
Language                    : English
Default                     : No
Forced                      : No

Text
ID                          : 5
Format                      : UTF-8
Codec ID                    : S_TEXT/UTF8
Codec ID/Info               : UTF-8 Plain Text
Duration                    : 1 h 40 min
Bit rate                    : 31 b/s
Count of elements           : 745
Stream size                 : 23.5 KiB (0%)
Language                    : English
Default                     : No
Forced                      : No

Menu
00:00:00.000                : en:00:00:00.000
00:09:23.729                : en:00:09:23.729
00:17:16.535                : en:00:17:16.535
00:27:18.970                : en:00:27:18.970
00:36:30.354                : en:00:36:30.354
00:44:55.317                : en:00:44:55.317
00:53:57.442                : en:00:53:57.442
01:03:06.741                : en:01:03:06.741
01:12:35.934                : en:01:12:35.934
01:21:08.863                : en:01:21:08.863
01:30:17.453                : en:01:30:17.453
01:41:00.888                : en:01:41:00.888
Оригінал <----------> Ріп







Джерела та подяки: &
За українські доріжки подяка п.ninenine (зведення) та Sando7 (1), РОМЕО і kicyunya (2) (запис з ТБ).

ЗАЛИШАЙТЕСЬ ЯКОМОГА ДОВШЕ НА РОЗДАЧІ!
СКАЧАВ САМ - ДАЙ СКАЧАТИ ІНШИМ


Срібний реліз (на рейтинг впливає 50% завантаженого)
 Трекер:    Зареєстрований   

Завантажити / скачати фільм українською



відео для новачків



 Зареєстрований:   2016-10-02 16:43
 Розмір:   7.19 GB 
 Оцінка фільму:   3.1/10 (Голосів: 13)
   
Інші релізи
Anonymous 







2016-10-02 16:45  
Реліз оновлено!
Додано українську доріжку з AMC

Ваш часовий пояс: GMT + 2 Години

Нова тема   Відповісти