Завантажити та скачати торренти українською


Квартет / Quartet (2012) 720p Ukr/Eng | Sub Eng

Нові коментарі

Нова тема   Відповісти
Автор Повідомлення
Anonymous 







2016-09-20 19:03  
Квартет / Quartet (2012) 720p Ukr/Eng | Sub Eng

Квартет / Quartet (2012) 720p Ukr/Eng | Sub Eng


Жанр: комедія, драма
Країна: Велика Британія



Кінокомпанія: Headline Pictures, BBC Films, DCM Productions
Режисер: Дастін Гоффман / Dustin Hoffman
Актори: Меґі Сміт / Maggie Smith, Том Кортні / Tom Courtenay, Біллі Конноллі / Billy Connolly, Паулін Коллінс / Pauline Collins, Майкл Ґембон / Michael Gambon, Шерідан Сміт / Sheridan Smith, Ендрю Сакс / Andrew Sachs, Тревор Пікок / Trevor Peacock, Девід Райалл / David Ryall та інші.

Сюжет:
Овації, квіти і шанувальники залишилися в минулому, але бадьорі старпери з Бічем-Гаус, будинку ветеранів британської оперної сцени, не мають наміру здаватися! Щороку в день народження Верді вони влаштовують гала-концерт. «Родзинкою програми» цього разу повинна стати нова пожилиця - колишня прима і справжня стерва Джин. Чи буде її возз'єднання з давніми партнерами успішним? Чи вийде у артистів відмовитися від колишніх амбіцій і минулих образ і, може, навіть воскресити забуту любов?


Рейтинг MPAA: PG-13 - дітям до 13 років перегляд не бажаний
Вікова категорія: 12+

Тривалість: 01:38:17
Якість: 720p
Відео:
кодек:
розмір кадру: 1280 х 544
бітрейт: 8450 Кбіт/с [crf=17]

Аудіо # 1:
мова: українська
переклад: багатоголосий закадровий
кодек: 2.0
бітрейт: 192 Кбіт/с

Аудіо # 2:
мова: англійська
переклад: оригінал
кодек: 5.1
бітрейт: 640 Кбіт/с

Аудіо # 3:
мова: англійська
переклад: коментарі режисера Дастіна Гофмана
кодек: 2.0
бітрейт: 72 Кбіт/с

Субтитри:
мова: англійська
тип: програмні (м'які)
формат: *.srt

Збережено оригінальні розділи, як на Blu-ray.
MediaInfo
Код:
Complete name               : Quartet (2012) [Ukr,Eng sub.Eng] 720p [Hurtom].mkv
Format                      : Matroska
Format version              : Version 4 / Version 2
File size                   : 6.42 GiB
Duration                    : 1 h 38 min
Overall bit rate            : 9 358 kb/s
Movie name                  : Квартет / Quartet (2012) [Ukr,Eng sub.Eng] 720p [Hurtom] by igor911
Released date               : 2012
Writing library             : libebml v1.3.4 + libmatroska v1.4.5
Cover                       : Yes
Comment                     : https://toloka.to/t76172
Attachments                 : cover.jpg
ARTIST                      : Меґі Сміт / Maggie Smith, Том Кортні / Tom Courtenay, Біллі Конноллі / Billy Connolly, Паулін Коллінс / Pauline Collins, Майкл Ґембон / Michael Gambon, Шерідан Сміт / Sheridan Smith, Ендрю Сакс / Andrew Sachs, Тревор Пікок / Trevor Peacock, Девід Райалл / David Ryall та інші
DIRECTOR                    : Дастін Гоффман / Dustin Hoffman
GENRE                       : комедія, драма
SYNOPSIS                    : Овації, квіти і шанувальники залишилися в минулому, але бадьорі старпери з Бічем-Гаус, будинку ветеранів британської оперної сцени, не мають наміру здаватися! Щороку в день народження Верді вони влаштовують гала-концерт. «Родзинкою програми» цього разу повинна стати нова пожилиця - колишня прима і справжня стерва Джин. Чи буде її возз'єднання з давніми партнерами успішним? Чи вийде у артистів відмовитися від колишніх амбіцій і минулих образ і, може, навіть воскресити забуту любов?

Video
ID                          : 1
Format                      : AVC
Format/Info                 : Advanced Video Codec
Format profile              : [email protected]
Format settings, CABAC      : Yes
Format settings, ReFrames   : 12 frames
Codec ID                    : V_MPEG4/ISO/AVC
Duration                    : 1 h 38 min
Bit rate                    : 8 450 kb/s
Width                       : 1 280 pixels
Height                      : 544 pixels
Display aspect ratio        : 2.35:1
Frame rate mode             : Constant
Frame rate                  : 23.976 (24000/1001) FPS
Color space                 : YUV
Chroma subsampling          : 4:2:0
Bit depth                   : 8 bits
Scan type                   : Progressive
Bits/(Pixel*Frame)          : 0.506
Stream size                 : 5.80 GiB (90%)
Title                       : Квартет / Quartet (2012) 720p [HDClub-SbR]
Writing library             : core 148 r2692+54 69a6f49 t_mod_Custom [[email protected] X86_64]
Encoding settings           : cabac=1 / ref=12 / deblock=1:-3:-3 / analyse=0x3:0x133 / me=umh / subme=11 / psy=1 / fade_compensate=0.00 / psy_rd=1.05:0.05 / mixed_ref=1 / me_range=24 / chroma_me=1 / trellis=2 / 8x8dct=1 / cqm=0 / deadzone=21,11 / fast_pskip=0 / chroma_qp_offset=-3 / threads=6 / lookahead_threads=1 / sliced_threads=0 / nr=0 / decimate=1 / interlaced=0 / bluray_compat=0 / constrained_intra=0 / fgo=0 / bframes=9 / b_pyramid=2 / b_adapt=2 / b_bias=0 / direct=3 / weightb=1 / open_gop=0 / weightp=2 / keyint=250 / keyint_min=23 / scenecut=40 / intra_refresh=0 / rc_lookahead=60 / rc=crf / mbtree=0 / crf=17.0000 / qcomp=0.55 / qpmin=0:0:0 / qpmax=69:69:69 / qpstep=4 / vbv_maxrate=62500 / vbv_bufsize=78125 / crf_max=0.0 / nal_hrd=none / filler=0 / ip_ratio=1.30 / pb_ratio=1.20 / aq=1:0.80 / aq-sensitivity=10.00 / aq-factor=1.00:1.00:1.00 / aq2=1:0.70 / aq2-sensitivity=15.00 / aq2-factor=1.00:1.00:1.00 / aq3=1:[0.60:0.60]:[0.60:0.60]:[0.60:0.60]:[0.60:0.60] / aq3-sensitivity=10.00 / aq3-factor=[1.00:1.00]:[1.00:1.00]:[1.00:1.00] / aq3-boundary=192:64:24
Language                    : English
Default                     : Yes
Forced                      : No
Color range                 : Limited
Color primaries             : BT.709
Transfer characteristics    : BT.709
Matrix coefficients         : BT.709

Audio #1
ID                          : 2
Format                      : AC-3
Format/Info                 : Audio Coding 3
Mode extension              : CM (complete main)
Format settings, Endianness : Big
Codec ID                    : A_AC3
Duration                    : 1 h 38 min
Bit rate mode               : Constant
Bit rate                    : 192 kb/s
Channel(s)                  : 2 channels
Channel positions           : Front: L R
Sampling rate               : 48.0 kHz
Frame rate                  : 31.250 FPS (1536 spf)
Compression mode            : Lossy
Stream size                 : 135 MiB (2%)
Title                       : MVO [1+1] 2.0 192 Kbps [Hurtom-patriot2305,slavik_v_z,Sando7]
Language                    : Ukrainian
Default                     : Yes
Forced                      : No

Audio #2
ID                          : 3
Format                      : AC-3
Format/Info                 : Audio Coding 3
Mode extension              : CM (complete main)
Format settings, Endianness : Big
Codec ID                    : A_AC3
Duration                    : 1 h 38 min
Bit rate mode               : Constant
Bit rate                    : 640 kb/s
Channel(s)                  : 6 channels
Channel positions           : Front: L C R, Side: L R, LFE
Sampling rate               : 48.0 kHz
Frame rate                  : 31.250 FPS (1536 spf)
Compression mode            : Lossy
Stream size                 : 450 MiB (7%)
Title                       : Original, 5.1 640 Kbps
Language                    : English
Default                     : No
Forced                      : No

Audio #3
ID                          : 4
Format                      :
Format/Info                 : Advanced Audio Codec
Format profile              : LC
Codec ID                    : A_AAC
Duration                    : 1 h 38 min
Bit rate                    : 72.0 kb/s
Channel(s)                  : 2 channels
Channel positions           : Front: L R
Sampling rate               : 48.0 kHz
Frame rate                  : 46.875 FPS (1024 spf)
Compression mode            : Lossy
Delay relative to video     : 9 ms
Stream size                 : 50.7 MiB (1%)
Title                       : Commentary by Dustin Hoffman, 2.0 72 Kbps
Language                    : English
Default                     : No
Forced                      : No

Text
ID                          : 5
Format                      : UTF-8
Codec ID                    : S_TEXT/UTF8
Codec ID/Info               : UTF-8 Plain Text
Duration                    : 1 h 30 min
Bit rate                    : 73 b/s
Count of elements           : 1232
Stream size                 : 48.8 KiB (0%)
Language                    : English
Default                     : No
Forced                      : No

Menu
00:00:00.000                : en:00:00:00.000
00:09:00.706                : en:00:09:00.706
00:16:43.085                : en:00:16:43.085
00:24:11.991                : en:00:24:11.991
00:32:38.789                : en:00:32:38.789
00:40:30.052                : en:00:40:30.052
00:49:49.402                : en:00:49:49.402
00:58:22.623                : en:00:58:22.623
01:06:54.760                : en:01:06:54.760
01:14:04.189                : en:01:14:04.189
01:22:54.219                : en:01:22:54.219
01:31:51.088                : en:01:31:51.088
Оригінал <----------> Ріп







Джерело: &
За українську доріжку подяка п. patriot2305 (зведення), slavik_v_z, Sando7 (запис з ТБ)

ЗАЛИШАЙТЕСЬ ЯКОМОГА ДОВШЕ НА РОЗДАЧІ!
СКАЧАВ САМ - ДАЙ СКАЧАТИ ІНШИМ


 Трекер:    Зареєстрований   

Завантажити / скачати фільм українською



відео для новачків



 Зареєстрований:   2016-09-20 20:11
 Розмір:   6.42 GB 
 Оцінка фільму:   4.5/10 (Голосів: 17)
   
Інші релізи
   Квартет / Quartet (2012) patriot2305  5 / 0   1.45 GB   2015-11-28 17:20 
bot 
робот


З нами з: 30.09.07
Востаннє: 26.05.05
Повідомлень: 16042

2016-09-20 20:10  
Тему перенесено з Анонси релізів до форуму Фільми в HD


igor911

Ваш часовий пояс: GMT + 2 Години

Нова тема   Відповісти