Завантажити та скачати торренти українською


Мілина / The Shallows (2016) 720p Ukr/Eng | Sub Ukr/Eng

Нові коментарі

Нова тема   Відповісти
Автор Повідомлення
Anonymous 







2016-09-20 18:23  
Мілина / The Shallows (2016) 720p Ukr/Eng | Sub Ukr/Eng

Мілина / The Shallows (2016) 720p Ukr/Eng | Sub Ukr/Eng

Альтернативні постери




повнорозмірні зображення відкриються по кліку (з натиснутим CTRL чи кліком середньою кнопкою мишки - у новій вкладці)


Жанр: драма, жахи, трилер
Країна: США



Кінокомпанія: Columbia Pictures, Ombra Films, Weimaraner Republic Pictures
Режисер: Жауме Коллет-Серра / Jaume Collet-Serra
Актори: Блейк Лайвлі / Blake Lively, Оскар Гаенада / Óscar Jaenada, Бретт Каллен / Brett Cullen, Седона Леджен / Sedona Legge, Пабло Кальва / Pablo Calva, Дієґо Еспегель / Diego Espejel, Джанелл Бейлі / Janelle Bailey, Ава Дін / Ava Dean, Челсі Муді / Chelsea Moody, Саллі Сіґалл / Sully Seagull

Сюжет:
Безкрайній океан, безлюдний пляж і ідеальна погода для серфінгістів в пошуках хорошої хвилі. Здавалося б, ніщо не віщує біди для чарівної любительки серфінгу. Хіба що побачення тет-а-тет з гігантською акулою, яка зажене спортсменку на піщану мілину і не відступить до тих пір, поки не отримає своє.



Рейтинг MPAA: PG-13 - дітям до 13 років перегляд не бажаний
Вікова категорія: 12+

Тривалість: 01:26:16
Якість: 720p
Відео:
кодек:
розмір кадру: 1280 х 536
бітрейт: 7876 Кбіт/с [crf=16.2]

Аудіо # 1:
мова: українська
переклад: професійний дубльований | студія LeDoyen
кодек: 2.0
бітрейт: 192 Кбіт/с
Інформація про дубляж
Переклад: Олег Пашин
Режисер дубляжу: Костянтин Лінартович
Звукорежисер: Олена Лапіна
Звукорежисер перезапису: Микита Будаш
Ролі дублювали: Олена Борозенець, Олександр Погребняк, Євген Пашин, Єлизавета Зіновенко, Юрій Сосков, Павло Лі.

Фільм надано компанією Columbia Pictures, дубльовано студією LeDoyen на замовлення компанії B&H Film Distribution.
Аудіо # 2:
мова: англійська
переклад: оригінал
кодек: 5.1
бітрейт: 640 Кбіт/с

Субтитри # 1-2:
мова: українська (форсовані, повні)
тип: програмні (м'які)
формат: *.srt
примітка: переклад Aqbf, синхронізація та редагування igor911

Субтитри # 3-5:
мова: англійська (форсовані, повні, SDH)
тип: програмні (м'які)
формат: *.srt

Збережено оригінальні розділи, як на Blu-ray.
MediaInfo
Код:
Complete name               : The Shallows (2016) [Ukr,Eng sub.Ukr,Eng] 720p [Hurtom].mkv
Format                      : Matroska
Format version              : Version 4 / Version 2
File size                   : 5.25 GiB
Duration                    : 1 h 26 min
Overall bit rate            : 8 711 kb/s
Movie name                  : Мілина / The Shallows (2016) [Ukr,Eng sub.Ukr,Eng] 720p [Hurtom] by igor911
Writing library             : libebml v1.3.4 + libmatroska v1.4.5
Cover                       : Yes
Comment                     : https://toloka.to/t76171
Attachments                 : cover.jpg
ARTIST                      : Блейк Лайвлі / Blake Lively, Оскар Гаенада / Óscar Jaenada, Бретт Каллен / Brett Cullen, Седона Леджен / Sedona Legge, Пабло Кальва / Pablo Calva, Дієґо Еспегель / Diego Espejel, Джанелл Бейлі / Janelle Bailey, Ава Дін / Ava Dean, Челсі Муді / Chelsea Moody, Саллі Сіґалл / Sully Seagull
DIRECTOR                    : Жауме Коллет-Серра / Jaume Collet-Serra
GENRE                       : драма, жахи, трилер
SYNOPSIS                    : Безкрайній океан, безлюдний пляж і ідеальна погода для серфінгістів у пошуках хорошої хвилі. Здавалося б, ніщо не віщує біди для чарівної любительки серфінгу. Хіба що побачення тет-а-тет з гігантською акулою, яка зажене спортсменку на скелясту мілину і не відступить до тих пір, поки не отримає своє.

Video
ID                          : 1
Format                      : AVC
Format/Info                 : Advanced Video Codec
Format profile              : [email protected]
Format settings, CABAC      : Yes
Format settings, ReFrames   : 12 frames
Codec ID                    : V_MPEG4/ISO/AVC
Duration                    : 1 h 26 min
Bit rate                    : 7 876 kb/s
Width                       : 1 280 pixels
Height                      : 536 pixels
Display aspect ratio        : 2.40:1
Frame rate mode             : Constant
Frame rate                  : 23.976 (24000/1001) FPS
Color space                 : YUV
Chroma subsampling          : 4:2:0
Bit depth                   : 8 bits
Scan type                   : Progressive
Bits/(Pixel*Frame)          : 0.479
Stream size                 : 4.75 GiB (90%)
Title                       : Мілина / The Shallows (2016) 720p
Writing library             : core 148 r2597 e86f3a1
Encoding settings           : cabac=1 / ref=12 / deblock=1:-3:-3 / analyse=0x3:0x113 / me=umh / subme=11 / psy=1 / psy_rd=1.00:0.00 / mixed_ref=1 / me_range=32 / chroma_me=1 / trellis=2 / 8x8dct=1 / cqm=0 / deadzone=21,11 / fast_pskip=0 / chroma_qp_offset=-2 / threads=17 / lookahead_threads=4 / sliced_threads=0 / nr=0 / decimate=0 / interlaced=0 / bluray_compat=0 / constrained_intra=0 / bframes=10 / b_pyramid=2 / b_adapt=2 / b_bias=0 / direct=3 / weightb=1 / open_gop=0 / weightp=2 / keyint=240 / keyint_min=24 / scenecut=40 / intra_refresh=0 / rc_lookahead=40 / rc=crf / mbtree=0 / crf=16.2 / qcomp=0.70 / qpmin=0 / qpmax=69 / qpstep=4 / vbv_maxrate=40000 / vbv_bufsize=30000 / crf_max=0.0 / nal_hrd=none / filler=0 / ip_ratio=1.20 / pb_ratio=1.20 / aq=3:0.85
Language                    : English
Default                     : Yes
Forced                      : No

Audio #1
ID                          : 2
Format                      : AC-3
Format/Info                 : Audio Coding 3
Mode extension              : CM (complete main)
Format settings, Endianness : Big
Codec ID                    : A_AC3
Duration                    : 1 h 26 min
Bit rate mode               : Constant
Bit rate                    : 192 kb/s
Channel(s)                  : 2 channels
Channel positions           : Front: L R
Sampling rate               : 48.0 kHz
Frame rate                  : 31.250 FPS (1536 spf)
Compression mode            : Lossy
Stream size                 : 118 MiB (2%)
Title                       : Dub [LeDoyen] 2.0 [real stereo] 192 Kbps [Hurtom]
Language                    : Ukrainian
Default                     : Yes
Forced                      : No

Audio #2
ID                          : 3
Format                      : AC-3
Format/Info                 : Audio Coding 3
Mode extension              : CM (complete main)
Format settings, Endianness : Big
Codec ID                    : A_AC3
Duration                    : 1 h 26 min
Bit rate mode               : Constant
Bit rate                    : 640 kb/s
Channel(s)                  : 6 channels
Channel positions           : Front: L C R, Side: L R, LFE
Sampling rate               : 48.0 kHz
Frame rate                  : 31.250 FPS (1536 spf)
Compression mode            : Lossy
Stream size                 : 395 MiB (7%)
Title                       : Original, 5.1 640 Kbps
Language                    : English
Default                     : No
Forced                      : No

Text #1
ID                          : 4
Format                      : UTF-8
Codec ID                    : S_TEXT/UTF8
Codec ID/Info               : UTF-8 Plain Text
Duration                    : 6 min
Bit rate                    : 6 b/s
Count of elements           : 16
Stream size                 : 332 Bytes (0%)
Title                       : Ukr Forced
Language                    : Ukrainian
Default                     : Yes
Forced                      : Yes

Text #2
ID                          : 5
Format                      : UTF-8
Codec ID                    : S_TEXT/UTF8
Codec ID/Info               : UTF-8 Plain Text
Duration                    : 1 h 20 min
Bit rate                    : 26 b/s
Count of elements           : 454
Stream size                 : 15.4 KiB (0%)
Title                       : Ukr Full
Language                    : Ukrainian
Default                     : No
Forced                      : No

Text #3
ID                          : 6
Format                      : UTF-8
Codec ID                    : S_TEXT/UTF8
Codec ID/Info               : UTF-8 Plain Text
Duration                    : 4 min
Bit rate                    : 6 b/s
Count of elements           : 12
Stream size                 : 202 Bytes (0%)
Title                       : Eng Forced
Language                    : English
Default                     : No
Forced                      : No

Text #4
ID                          : 7
Format                      : UTF-8
Codec ID                    : S_TEXT/UTF8
Codec ID/Info               : UTF-8 Plain Text
Duration                    : 1 h 19 min
Bit rate                    : 20 b/s
Count of elements           : 568
Stream size                 : 12.1 KiB (0%)
Title                       : Eng Full
Language                    : English
Default                     : No
Forced                      : No

Text #5
ID                          : 8
Format                      : UTF-8
Codec ID                    : S_TEXT/UTF8
Codec ID/Info               : UTF-8 Plain Text
Duration                    : 1 h 25 min
Bit rate                    : 27 b/s
Count of elements           : 915
Stream size                 : 17.4 KiB (0%)
Title                       : Eng SDH
Language                    : English
Default                     : No
Forced                      : No

Menu
00:00:00.000                : en:Chapter 1
00:08:09.697                : en:Chapter 2
00:15:10.407                : en:Chapter 3
00:20:31.939                : en:Chapter 4
00:25:45.876                : en:Chapter 5
00:30:07.055                : en:Chapter 6
00:36:04.118                : en:Chapter 7
00:40:39.685                : en:Chapter 8
00:45:41.611                : en:Chapter 9
00:49:32.219                : en:Chapter 10
00:55:57.977                : en:Chapter 11
01:01:21.510                : en:Chapter 12
01:06:22.561                : en:Chapter 13
01:09:57.443                : en:Chapter 14
01:13:38.704                : en:Chapter 15
01:19:01.485                : en:Chapter 16


Джерела та подяки: &
Укр.звук - AngryBirdsUA, укр.субтитри - Aqbf, igor911; постер - Gelios





ЗАЛИШАЙТЕСЬ ЯКОМОГА ДОВШЕ НА РОЗДАЧІ!
СКАЧАВ САМ - ДАЙ СКАЧАТИ ІНШИМ


 Трекер:    Зареєстрований   

Завантажити / скачати фільм українською



відео для новачків



 Зареєстрований:   2016-09-21 02:41
 Розмір:   5.25 GB 
 Оцінка фільму:   6.2/10 (Голосів: 30)
   
Інші релізи
   Мілина / The Shallows (2016) 1080p Ukr/Eng | Sub Ukr/Eng 11FrYkT  23 / 0   8.52 GB   2016-09-21 11:01 
   Мілина / The Shallows (2016) AVC Ukr/Eng | Sub Ukr/Eng igor911  52 / 0   2.85 GB   2016-09-21 03:29 
   Мілина / The Shallows (2016) AVC AngryBirdsUA  23 / 0   1.45 GB   2016-09-20 22:53 
   Мілина / The Shallows (2016) Gelios  68 / 1   1.45 GB   2016-09-20 22:43 
   Мілина / The Shallows (2016) 1080p Eng | Sub Ukr/Eng Aqbf  6 / 0   2.26 GB   2016-09-12 00:57 
bot 
робот


З нами з: 30.09.07
Востаннє: 26.05.05
Повідомлень: 16050

2016-09-21 02:40  
Тему перенесено з Анонси релізів до форуму Фільми в HD


igor911

EduardGol 
Поважний учасник


З нами з: 03.10.13
Востаннє: 10.12.16
Повідомлень: 162

2016-09-21 13:13  
Здавалося б така заїжджена тема, але подивився із задоволенням, на одному подиху. Мабуть справа в чудових кадрах та в тому, що фільм не був обмежений банальним поїданням відпочиваючих. Happy
don pedro 
Попереджень: 1
Попереджень: 1 


З нами з: 29.06.11
Востаннє: 10.12.16
Повідомлень: 8774

2016-09-21 13:22  
EduardGol написано:
справа в чудових кадрах

Особливо з Блейк Лавлі у цих кадрах.

olthik 
Частий відвідувач


З нами з: 02.03.16
Востаннє: 08.12.16
Повідомлень: 33

2016-09-25 19:59  
Гарний, яскравий фільм, весь час в напрузі.
Ваш часовий пояс: GMT + 2 Години

Нова тема   Відповісти