Завантажити та скачати торренти українською


Казка казок (Tale of Tales) / Il racconto dei racconti (2015) 720p Ukr/Eng | Sub Eng/Ita

Нові коментарі

Нова тема   Відповісти
Автор Повідомлення
Anonymous 







2016-09-20 09:23  
Казка казок / Il racconto dei racconti / Tale of Tales (2015) 720p Ukr/Eng | Sub Eng/Ita



Жанр: фентезі, жахи, драма, артхаус
Країна: Італія, Франція, Велика Британія



Кінокомпанія: Archimede, Le Pacte, Rai Cinema, HanWay Films
Режисер: Маттео Ґарроне / Matteo Garrone
Актори: Сальма Гаєк / Salma Hayek, Венсан Кассель / Vincent Cassel, Тобі Джонс / Toby Jones, Джон Сі Райлі / John C. Reilly, Ширлі Гендерсон / Shirley Henderson, Гейлі Кармайкл / Hayley Carmichael, Бебе Кейв / Bebe Cave, Стейсі Мартін / Stacy Martin, Крістіан Ліс / Christian Lees, Джона Ліс / Jonah Lees та інші.

Сюжет:
Маги і чарівники, королі і королеви, красуні-принцеси та велетні-потвори населяють цю приголомшливу готичну фантазію. Хтивий Король Самотнього Стрімчака бере за дружину чарівну діву, а вона перетворюється на потворну стару. Відважний Король Долини Туманів відправляється на бій з водяним чудовиськом, оскільки чарівник передбачив, що королева завагітніє, якщо з'їсть серце цього чудовиська. Ну, а Король Диких Гір з любов'ю вирощує гігантську блоху, а рідну дочку без тіні жалю віддає за дружину гірському огру. За стінами величних замків будуються підступні змови, даються нерозважливі обітниці, там пристрасно кохають та жорстоко вбивають. Вільна інтерпретація відомих казок Джамбаттисти Базіле (1566-1632).


Український офіційний трейлер


Рейтинг MPAA: R - особам до 17 років обов'язкова присутність батьків або дорослого опікуна
Вікова категорія: 16+

Тривалість: 02:13:46
Якість: 720p
Відео:
кодек:
розмір кадру: 1280 х 544
бітрейт: 5574 Кбіт/с

Аудіо # 1:
мова: українська
переклад: багатоголосий закадровий | ААА-sound
кодек: 5.1
бітрейт: 384 Кбіт/с
примітка: з цим же кінотеатральним озвученням транслювалось по ТРК "Україна"
Інформація про озвучення
Ролі озвучили: Катерина Брайковська, Андрій Федінчик, Андрій Альохін, Юрій Ребрик, Ірина Грей, Дмитро Завадський, Олександр Єфімов та інші.
Режисер дубляжу: Олександр Єфімов
Фільм озвучено студією ААА-sound у 2015 році на замовлення компанії "Артхаус Трафік".
Аудіо # 2:
мова: англійська
переклад: оригінал
кодек: 5.1
бітрейт: 640 Кбіт/с

Субтитри #1-2:
мова: англійська, італійська
тип: програмні (м'які)
формат: *.srt

Збережено оригінальні розділи, як на Blu-ray.
MediaInfo
Код:
Complete name               : Il racconto dei racconti (Tale of Tales) (2015) [Ukr,Eng sub.Eng,Ita] 720p [Hurtom].mkv
Format                      : Matroska
Format version              : Version 4 / Version 2
File size                   : 6.17 GiB
Duration                    : 2 h 13 min
Overall bit rate            : 6 601 kb/s
Movie name                  : Казка казок / Il racconto dei racconti (2015) [Ukr,Eng sub.Eng,Ita] 720p [Hurtom & HDClub] by igor911
Writing library             : libebml v1.3.4 + libmatroska v1.4.5
Cover                       : Yes
Attachments                 : cover.jpg

Video
ID                          : 1
Format                      : AVC
Format/Info                 : Advanced Video Codec
Format profile              : [email protected]
Format settings, CABAC      : Yes
Format settings, ReFrames   : 12 frames
Codec ID                    : V_MPEG4/ISO/AVC
Duration                    : 2 h 13 min
Bit rate                    : 5 574 kb/s
Width                       : 1 280 pixels
Height                      : 544 pixels
Display aspect ratio        : 2.35:1
Frame rate mode             : Constant
Frame rate                  : 24.000 FPS
Color space                 : YUV
Chroma subsampling          : 4:2:0
Bit depth                   : 8 bits
Scan type                   : Progressive
Bits/(Pixel*Frame)          : 0.334
Stream size                 : 5.21 GiB (84%)
Title                       : Казка казок / Il racconto dei racconti (2015) 720p [IDE]
Writing library             : core 148 r2579+50 65f745f t_mod_Custom [[email protected] X86_64]
Encoding settings           : cabac=1 / ref=12 / deblock=1:-3:-3 / analyse=0x3:0x133 / me=umh / subme=10 / psy=1 / fade_compensate=0.00 / psy_rd=1.00:0.00 / mixed_ref=1 / me_range=48 / chroma_me=1 / trellis=2 / 8x8dct=1 / cqm=0 / deadzone=21,11 / fast_pskip=1 / chroma_qp_offset=-2 / threads=8 / lookahead_threads=1 / sliced_threads=0 / nr=0 / decimate=1 / interlaced=0 / bluray_compat=0 / constrained_intra=0 / fgo=0 / bframes=8 / b_pyramid=2 / b_adapt=2 / b_bias=0 / direct=3 / weightb=1 / open_gop=0 / weightp=2 / keyint=250 / keyint_min=24 / scenecut=40 / intra_refresh=0 / rc_lookahead=150 / rc=crf / mbtree=0 / crf=15.6000 / qcomp=0.60 / qpmin=0:0:0 / qpmax=69:69:69 / qpstep=4 / vbv_maxrate=50000 / vbv_bufsize=62500 / crf_max=0.0 / nal_hrd=none / filler=0 / ip_ratio=1.40 / pb_ratio=1.30 / aq=3:0.75 / aq-sensitivity=10.00 / aq-factor=1.00:1.00:1.00 / aq2=0 / aq3=0 / zones=0,592,crf=14.6
Language                    : English
Default                     : Yes
Forced                      : No

Audio #1
ID                          : 2
Format                      : AC-3
Format/Info                 : Audio Coding 3
Mode extension              : CM (complete main)
Format settings, Endianness : Big
Codec ID                    : A_AC3
Duration                    : 2 h 13 min
Bit rate mode               : Constant
Bit rate                    : 384 kb/s
Channel(s)                  : 6 channels
Channel positions           : Front: L C R, Side: L R, LFE
Sampling rate               : 48.0 kHz
Frame rate                  : 31.250 FPS (1536 spf)
Compression mode            : Lossy
Stream size                 : 367 MiB (6%)
Title                       : MVO [ААА-sound] 5.1 384 Kbps [Hurtom-Hanway]
Language                    : Ukrainian
Default                     : Yes
Forced                      : No

Audio #2
ID                          : 3
Format                      : AC-3
Format/Info                 : Audio Coding 3
Mode extension              : CM (complete main)
Format settings, Endianness : Big
Codec ID                    : A_AC3
Duration                    : 2 h 13 min
Bit rate mode               : Constant
Bit rate                    : 640 kb/s
Channel(s)                  : 6 channels
Channel positions           : Front: L C R, Side: L R, LFE
Sampling rate               : 48.0 kHz
Frame rate                  : 31.250 FPS (1536 spf)
Compression mode            : Lossy
Stream size                 : 612 MiB (10%)
Title                       : Original, 5.1 640 Kbps
Language                    : English
Default                     : No
Forced                      : No

Text #1
ID                          : 4
Format                      : UTF-8
Codec ID                    : S_TEXT/UTF8
Codec ID/Info               : UTF-8 Plain Text
Duration                    : 1 h 59 min
Bit rate                    : 19 b/s
Count of elements           : 636
Stream size                 : 17.0 KiB (0%)
Language                    : English
Default                     : No
Forced                      : No

Text #2
ID                          : 5
Format                      : UTF-8
Codec ID                    : S_TEXT/UTF8
Codec ID/Info               : UTF-8 Plain Text
Duration                    : 2 h 0 min
Bit rate                    : 21 b/s
Count of elements           : 623
Stream size                 : 18.6 KiB (0%)
Language                    : Italian
Default                     : No
Forced                      : No

Menu
00:00:00.000                : en:Chapter 1
00:08:36.792                : en:Chapter 2
00:19:37.750                : en:Chapter 3
00:26:20.250                : en:Chapter 4
00:36:05.000                : en:Chapter 5
00:44:24.083                : en:Chapter 6
00:56:14.458                : en:Chapter 7
01:09:24.583                : en:Chapter 8
01:24:24.625                : en:Chapter 9
01:33:59.333                : en:Chapter 10
01:47:49.333                : en:Chapter 11
02:01:58.917                : en:Chapter 12
Оригінал <----------> Ріп








Джерела та подяки: &
Подяка за українську доріжку п. Hanway'ю та п. Gelios



ЗАЛИШАЙТЕСЬ ЯКОМОГА ДОВШЕ НА РОЗДАЧІ
СКАЧАВ САМ - ДАЙ СКАЧАТИ ІНШИМ!


 Трекер:    Зареєстрований   

Завантажити / скачати фільм українською



відео для новачків



 Зареєстрований:   2016-09-20 09:23
 Розмір:   6.17 GB 
 Оцінка фільму:   5/10 (Голосів: 21)
   
Інші релізи
   Казка казок / Il racconto dei racconti (2015) Gelios  22 / 1   1.45 GB   2016-07-06 13:05 
Jani307 
Частий відвідувач


З нами з: 09.06.14
Востаннє: 09.12.16
Повідомлень: 34

2016-09-20 21:36  
Кепське враження від фільму. Зовсім не сподобалося. Це, як я розумію, "авторське" бачення казок. Інтерпретація ну дуже вільна.
Шкодую витраченого часу.

Ваш часовий пояс: GMT + 2 Години

Нова тема   Відповісти