Завантажити та скачати торренти українською


Цацикі, мама та поліцейський / Tsatsiki, morsan och polisen (1999) Ukr/Swe

Нові коментарі

Нова тема   Відповісти
Автор Повідомлення
1101 
Свій


З нами з: 09.07.12
Востаннє: 24.11.16
Повідомлень: 62

2016-09-19 20:30  
Цацикі, мама та поліцейський / Tsatsiki, morsan och polisen (1999) Ukr/Swe

Цацикі, мама та поліцейський / Tsatsiki, morsan och polisen (1999) Ukr/Swe


Жанр: сімейний, драма, комедія
Країна: Швеція, Данія, Норвегія, Ісландія



Кінокомпанія: Danmarks Radio (DR), Felicia Film, Film Väst
Режисер: Елла Лемхаген / Ella Lemhagen
Актори: Самуель Хаус, Александра Рапапорт, Якуб Ерікссон, Юнас Карлссон, Георге Накас, Сам Кессель, Хельге Юрдаль, Марія Бонневі та інші.

Сюжет:
Маленький Тобіас воліє, аби всі називали його Цацикі, тому що його тато, якого він ніколи не бачив, родом із Греції. Цацикі живе зі своєю мамою й усіляко намагається умовити її поїхати до Греції, щоб знайти батька. А ще він вирішує знайти мамі нового чоловіка в особі приязного поліцейського, з яким він випадково знайомиться в басейні. Дуже добра і зворушлива шведська комедія...


Лауреат Берлінського та низки інших кінофестивалів.

Тривалість: 01:30:06
Якість:
Відео:
кодек:
розмір кадру: 720 х 416
бітрейт: 1678 кб/с

Аудіо # 1:
мова: українська
переклад: одноголосий закадровий ЗРАЗОК - https://www.sendspace.com/file/gmow52
кодек: MP3
бітрейт: 320 кб/с

Аудіо # 2:
мова: шведська
переклад: оригінал
кодек: 2.0
бітрейт: 384 кб/с

Джерело озвучення:
Скріншоти



Медіа інфо

Format : Matroska
Format version : Version 2
File size : 1.53 GiB
Duration : 1h 30mn
Overall bit rate : 2 430 Kbps
Encoded date : UTC 2016-09-19 17:09:36
Writing application : mkvmerge v5.0.0 ('Die Wahre Liebe') built on Sep 25 2011 20:33:49
Writing library : libebml v1.2.2 + libmatroska v1.3.0

Video
ID : 1
Format : MPEG-4 Visual
Format profile : Advanced [email protected]
Format settings, BVOP : Yes
Format settings, QPel : No
Format settings, GMC : No warppoints
Format settings, Matrix : Default (MPEG)
Codec ID :
Codec ID/Hint :
Duration : 1h 30mn
Bit rate : 1 678 Kbps
Width : 720 pixels
Height : 416 pixels
Display aspect ratio : 16:9
Frame rate : 25.000 fps
Color space : YUV
Chroma subsampling : 4:2:0
Bit depth : 8 bits
Scan type : Progressive
Compression mode : Lossy
Bits/(Pixel*Frame) : 0.224
Stream size : 1.06 GiB (69%)
Writing library : 1.2.1 (UTC 2008-12-04)
Default : Yes
Forced : No

Audio #1
ID : 2
Format : MPEG Audio
Format version : Version 1
Format profile : Layer 3
Mode : Joint stereo
Codec ID : A_MPEG/L3
Codec ID/Hint : MP3
Duration : 1h 30mn
Bit rate mode : Constant
Bit rate : 320 Kbps
Channel(s) : 2 channels
Sampling rate : 44.1 KHz
Compression mode : Lossy
Stream size : 206 MiB (13%)
Language : Ukrainian
Default : Yes
Forced : Yes

Audio #2
ID : 3
Format : AC-3
Format/Info : Audio Coding 3
Format profile : Dolby Digital
Mode extension : CM (complete main)
Codec ID : A_AC3
Duration : 1h 30mn
Bit rate mode : Constant
Bit rate : 384 Kbps
Channel(s) : 2 channels
Channel positions : Front: L R
Sampling rate : 48.0 KHz
Bit depth : 16 bits
Compression mode : Lossy
Stream size : 248 MiB (16%)
Default : No
Forced : No
Особиста оцінка: 10 - без зайвих вагань рекомендую всім!


Авторський реліз (завантажувати можна без реєстрації)
 Трекер:    Зареєстрований   

Завантажити / скачати фільм українською



відео для новачків



 Зареєстрований:   2016-09-19 20:30
 Розмір:   1.53 GB 
 Оцінка фільму:   8/10 (Голосів: 2)
   
11FrYkT 
Модератор відео


З нами з: 20.02.11
Востаннє: 09.12.16
Повідомлень: 3130

2016-09-19 21:24  
1101 написано:
Bit rate : 1 678 Kbps

EvGaS 
Відео Гуртом - підтримка та поширення
Відео Гуртом - підтримка та поширення


З нами з: 27.02.12
Востаннє: 09.12.16
Повідомлень: 2140

2016-09-20 05:38  
1101
Це Вам про те, що Ви вказали загальний бітрейт замість відеобітрейту. Wink (2)

EvGaS 
Відео Гуртом - підтримка та поширення
Відео Гуртом - підтримка та поширення


З нами з: 27.02.12
Востаннє: 09.12.16
Повідомлень: 2140

2016-09-26 11:09  
Так, дещо складно звикнути, але хвилин через 5 все ж звикаєш.
Так, воно відзнято за малий кошт на дешеву камеру з тряскою та поганенькою плівкою.
Та все ж це кіно, що бере історією, а не картинкою.

Мені сподобалось. Бо навіть низькобюджетні й дитячі фільми можуть бути цікавими.
Гарна сімейна комедія-побут.

taksist 
Свій


З нами з: 10.12.12
Востаннє: 09.12.16
Повідомлень: 52

2016-10-02 21:23  
якщо позиціонувати як не тематичне а для загалу то так собі.
6 з 10.

Ваш часовий пояс: GMT + 2 Години

Нова тема   Відповісти